Cinefacts

Ergebnis 1 bis 1 von 1
  1. #1
    Registrierter Benutzer
    Registriert seit
    28.02.08
    Ort
    Hessen
    Alter
    40
    Beiträge
    2.531

    Vergleich der District 13 Box UK gegen US

    Habe für einen Freund den Datenvergleich der beiden Filme gefahren. Vielleicht interessiert es ja jemanden auch hier im Forum.

    Als schnell Zusammenfassung:

    US Teil 1 - MPEG2 Codec mit einer recht hohen Bitrate im Durchschnit 21MBit Bildrate.
    UK Teil 1 - VC1-Codec mit einer recht hohen Bitrate im Durchschnit 23MBit Bildrate

    Da der MPEG2 Codec wohl schlechter ist als das VC1 Codec, müsste theoretisch das Bild der UK besser sein. Das Bildmaster kaum rauschen so das typische MPEG2-Artefakte eher ausbleiben dürften.

    Beim Ton hat die US natürlich mit DTS-HD (HR) mit einer Bitrate von über 3000kbit natürlich die Nase vorn vor der UK mit DD5.1 und 640kbit (was man auch deutlich hört IMHO)

    US Teil 2 - VC-1 Codec mit einer recht hohen Bitrate im Durchschnit 29MBit Bildrate.
    UK Teil 2 - VC-1 Codec mit einer recht hohen Bitrate im Durchschnit 19MBit Bildrate

    Das US-Bild läuft dauerhaft deutlich in den höheren Bit-Bereichen und hat somit eine geringere Komprimierung. Ob man den Unterschied auf einer "normalen" Wiedergabekette sehen kann weiß ich nicht.

    Beim Ton hat die US einen sehr guten Französichen Orginalton als DTS-HD MA und 4600kbit (und 24-Bit), während die UK nur eine mit 2491kbIt hat, die Englisch Tonspur nimmt sich bei beiden nicht viel beide 16-Bit und um die 24XXkBit Datenrate. Die sind wohl 1:1 Vergleichbar.

    Wenn man also die reinen Daten zugrunde legt ist die BD vonTeil 2 auf alle Fälle die US-Scheibe vorzuziehen (wenn man O-Ton hört) und bei, ersten Teil müsste man sich einen Hybriden erschaffen aus dem Bild der UK und dem Ton der US Version .

    District B13 - US-Version


    Code:
                                                                                                                    Total   Video                                             
    Title                                                           Codec   Length  Movie Size      Disc Size       Bitrate Bitrate Main Audio Track                          Secondary Audio Track
    -----                                                           ------  ------- --------------  --------------  ------- ------- ------------------                        ---------------------
    00000.MPLS                                                      MPEG-2  1:24:34 19.320.514.560  23.786.984.254  30,46   20,99   DTS-HD Hi-Res 5.1-ES 3018Kbps (48kHz/24-bit)DD AC3 5.1-EX 640Kbps
    Code:
    DISC INFO:
    
    Disc Title:     LOGICAL_VOLUME_ID
    Disc Size:      23.786.984.254 bytes
    Protection:     AACS
    BD-Java:        No
    BDInfo:         0.5.6
    
    PLAYLIST REPORT:
    
    Name:                   00000.MPLS
    Length:                 1:24:34 (h:m:s)
    Size:                   19.320.514.560 bytes
    Total Bitrate:          30,46 Mbps
    
    VIDEO:
    
    Codec                   Bitrate             Description     
    -----                   -------             -----------     
    MPEG-2 Video            20989 kbps          1080p / 23,976 fps / 16:9
    
    AUDIO:
    
    Codec                           Language        Bitrate         Description     
    -----                           --------        -------         -----------     
    DTS-HD High-Res Audio           English         3018 kbps       5.1-ES / 48 kHz / 3018 kbps / 24-bit (DTS Core: 5.1-ES / 48 kHz / 1509 kbps / 24-bit / DN -4dB)
    DTS-HD High-Res Audio           French          3018 kbps       5.1-ES / 48 kHz / 3018 kbps / 24-bit (DTS Core: 5.1-ES / 48 kHz / 1509 kbps / 24-bit / DN -4dB)
    Dolby Digital EX Audio          English         640 kbps        5.1-EX / 48 kHz / 640 kbps / DN -4dB
    Dolby Digital EX Audio          French          640 kbps        5.1-EX / 48 kHz / 640 kbps / DN -4dB
    
    SUBTITLES:
    
    Codec                           Language        Bitrate         Description     
    -----                           --------        -------         -----------     
    Presentation Graphics           English         62,171 kbps                     
    Presentation Graphics           Spanish         63,455 kbps                     
    
    FILES:
    
    Name            Time In         Length          Size            Total Bitrate   
    ----            -------         ------          ----            -------------   
    00000.M2TS      0:00:00.000     1:24:34.069     19.320.514.560  30.462          
    
    CHAPTERS:
    
    Number          Time In         Length          Avg Video Rate  Max 1-Sec Rate  Max 1-Sec Time  Max 5-Sec Rate  Max 5-Sec Time  Max 10Sec Rate  Max 10Sec Time  Avg Frame Size  Max Frame Size  Max Frame Time  
    ------          -------         ------          --------------  --------------  --------------  --------------  --------------  --------------  --------------  --------------  --------------  --------------  
    1               0:00:00.000     0:02:41.161     21.491 kbps     36.402 kbps     00:02:07.502    29.047 kbps     00:01:32.008    27.136 kbps     00:01:27.962    112.015 bytes   689.369 bytes   00:00:32.699    
    2               0:02:41.161     0:08:54.492     21.662 kbps     38.215 kbps     00:06:40.900    29.332 kbps     00:05:10.810    26.279 kbps     00:09:18.307    112.938 bytes   664.170 bytes   00:10:51.317    
    3               0:11:35.653     0:01:28.755     20.239 kbps     29.561 kbps     00:12:29.623    24.857 kbps     00:12:27.913    22.509 kbps     00:12:26.996    105.517 bytes   628.250 bytes   00:11:52.503    
    4               0:13:04.408     0:06:53.746     21.964 kbps     38.347 kbps     00:18:47.126    33.824 kbps     00:18:46.875    31.669 kbps     00:18:44.748    114.512 bytes   665.132 bytes   00:16:57.558    
    5               0:19:58.155     0:02:48.418     20.813 kbps     34.938 kbps     00:22:38.732    24.974 kbps     00:22:38.482    23.048 kbps     00:21:39.881    108.509 bytes   653.232 bytes   00:22:46.198    
    6               0:22:46.573     0:10:39.055     22.681 kbps     37.698 kbps     00:29:05.618    31.285 kbps     00:33:12.115    28.156 kbps     00:29:05.618    118.250 bytes   633.150 bytes   00:25:59.849    
    7               0:33:25.628     0:02:47.542     18.197 kbps     30.669 kbps     00:34:12.300    24.503 kbps     00:34:11.758    23.137 kbps     00:34:09.547    94.870 bytes    663.163 bytes   00:33:56.826    
    8               0:36:13.171     0:07:18.062     21.185 kbps     36.745 kbps     00:41:13.179    28.637 kbps     00:41:11.343    27.709 kbps     00:42:44.311    110.446 bytes   659.182 bytes   00:36:27.727    
    9               0:43:31.233     0:06:08.284     18.692 kbps     30.499 kbps     00:47:04.696    23.780 kbps     00:43:40.868    21.955 kbps     00:43:35.863    97.454 bytes    689.369 bytes   00:48:00.669    
    10              0:49:39.518     0:06:03.780     19.445 kbps     31.105 kbps     00:54:12.624    26.371 kbps     00:54:10.872    24.851 kbps     00:54:11.039    101.380 bytes   682.850 bytes   00:53:19.738    
    11              0:55:43.298     0:06:39.065     19.369 kbps     38.698 kbps     00:59:00.036    28.494 kbps     00:58:56.282    25.048 kbps     00:58:54.447    100.979 bytes   689.369 bytes   00:59:32.860    
    12              1:02:22.363     0:03:20.533     23.127 kbps     34.487 kbps     01:04:11.722    28.388 kbps     01:04:07.718    26.277 kbps     01:03:01.778    120.575 bytes   662.857 bytes   01:05:33.721    
    13              1:05:42.897     0:03:13.526     21.346 kbps     31.592 kbps     01:07:03.894    25.008 kbps     01:08:30.356    24.541 kbps     01:08:07.041    111.286 bytes   626.107 bytes   01:06:01.749    
    14              1:08:56.423     0:05:50.016     23.296 kbps     37.584 kbps     01:12:28.344    32.718 kbps     01:12:26.592    31.170 kbps     01:12:25.716    121.457 bytes   653.188 bytes   01:12:25.758    
    15              1:14:46.440     0:05:45.678     19.850 kbps     33.802 kbps     01:17:52.292    25.958 kbps     01:18:08.767    24.292 kbps     01:17:50.999    103.486 bytes   670.294 bytes   01:16:05.852    
    16              1:20:32.118     0:04:01.950     19.730 kbps     25.443 kbps     01:21:16.913    24.394 kbps     01:21:16.371    23.856 kbps     01:21:13.994    102.882 bytes   613.025 bytes   01:24:32.484    
    
    STREAM DIAGNOSTICS:
    
    File            PID             Type            Codec           Language                Seconds                 Bitrate                 Bytes           Packets         
    ----            ---             ----            -----           --------                --------------          --------------          -------------   -----           
    00000.M2TS      4113 (0x1011)   0x02            MPEG-2                                  5073,944                20.990                  13.312.520.433  72.421.530      
    00000.M2TS      4352 (0x1100)   0x85            DTS-HD HR       fra (French)            5073,944                3.018                   1.914.192.656   11.416.656      
    00000.M2TS      4353 (0x1101)   0x85            DTS-HD HR       eng (English)           5073,944                3.018                   1.914.192.656   11.416.656      
    00000.M2TS      4354 (0x1102)   0x81            AC3-EX          fra (French)            5073,944                640                     405.926.400     2.378.475       
    00000.M2TS      4355 (0x1103)   0x81            AC3-EX          eng (English)           5073,944                640                     405.926.400     2.378.475       
    00000.M2TS      4608 (0x1200)   0x90            PGS             eng (English)           5073,944                62                      39.432.665      220.926         
    00000.M2TS      4609 (0x1201)   0x90            PGS             spa (Spanish)           5073,944                63                      40.246.961      224.936

    District B13 - UK-Version


    Code:
                                                                                                                    Total   Video                                             
    Title                                                           Codec   Length  Movie Size      Disc Size       Bitrate Bitrate Main Audio Track                          Secondary Audio Track
    -----                                                           ------  ------- --------------  --------------  ------- ------- ------------------                        ---------------------
    00007.MPLS                                                      VC-1    1:24:46 16.200.142.848  22.420.298.670  25,48   22,95   DD AC3 5.1 640Kbps
    Code:
    DISC INFO:
    
    Disc Title:     DISTRICT_13
    Disc Size:      22.420.298.670 bytes
    Protection:     AACS
    BD-Java:        No
    BDInfo:         0.5.6
    
    PLAYLIST REPORT:
    
    Name:                   00007.MPLS
    Length:                 1:24:46 (h:m:s)
    Size:                   16.200.142.848 bytes
    Total Bitrate:          25,48 Mbps
    
    VIDEO:
    
    Codec                   Bitrate             Description     
    -----                   -------             -----------     
    VC-1 Video              22946 kbps          1080p / 23,976 fps / 16:9 / Advanced Profile 3
    
    AUDIO:
    
    Codec                           Language        Bitrate         Description     
    -----                           --------        -------         -----------     
    Dolby Digital Audio             English         640 kbps        5.1 / 48 kHz / 640 kbps / DN -4dB
    Dolby Digital Audio             French          640 kbps        5.1 / 48 kHz / 640 kbps / DN -4dB
    
    SUBTITLES:
    
    Codec                           Language        Bitrate         Description     
    -----                           --------        -------         -----------     
    Presentation Graphics           English         19,867 kbps                     
    
    FILES:
    
    Name            Time In         Length          Size            Total Bitrate   
    ----            -------         ------          ----            -------------   
    00019.M2TS      0:00:00.000     0:00:11.052     29.196.288      21.132          
    00008.M2TS      0:00:11.052     1:24:35.737     16.170.946.560  25.487          
    
    CHAPTERS:
    
    Number          Time In         Length          Avg Video Rate  Max 1-Sec Rate  Max 1-Sec Time  Max 5-Sec Rate  Max 5-Sec Time  Max 10Sec Rate  Max 10Sec Time  Avg Frame Size  Max Frame Size  Max Frame Time  
    ------          -------         ------          --------------  --------------  --------------  --------------  --------------  --------------  --------------  --------------  --------------  --------------  
    1               0:00:00.000     0:08:41.604     23.047 kbps     50.732 kbps     00:02:21.140    37.638 kbps     00:02:05.834    35.901 kbps     00:02:04.791    120.889 bytes   674.332 bytes   00:00:09.884    
    2               0:08:41.604     0:07:33.786     26.057 kbps     48.061 kbps     00:09:36.659    34.863 kbps     00:13:59.171    31.953 kbps     00:14:25.489    135.848 bytes   642.954 bytes   00:10:03.144    
    3               0:16:15.391     0:06:45.655     24.795 kbps     44.241 kbps     00:19:20.075    37.177 kbps     00:18:50.170    34.839 kbps     00:19:28.584    129.268 bytes   521.311 bytes   00:20:07.456    
    4               0:23:01.046     0:11:52.920     27.545 kbps     46.782 kbps     00:33:26.170    37.173 kbps     00:26:52.235    35.439 kbps     00:29:55.919    143.607 bytes   557.970 bytes   00:32:00.335    
    5               0:34:53.966     0:01:29.422     13.254 kbps     24.156 kbps     00:34:56.761    18.557 kbps     00:34:55.218    16.046 kbps     00:34:54.759    69.098 bytes    322.805 bytes   00:35:17.990    
    6               0:36:23.389     0:05:07.682     22.977 kbps     45.384 kbps     00:40:45.818    35.708 kbps     00:40:10.616    34.066 kbps     00:40:10.366    119.790 bytes   673.875 bytes   00:41:02.042    
    7               0:41:31.071     0:08:21.834     19.494 kbps     45.569 kbps     00:42:12.154    33.161 kbps     00:43:11.880    32.312 kbps     00:42:57.908    101.631 bytes   751.742 bytes   00:47:18.460    
    8               0:49:52.906     0:06:03.488     22.142 kbps     45.341 kbps     00:54:25.929    36.396 kbps     00:54:24.761    34.499 kbps     00:54:24.761    115.437 bytes   605.218 bytes   00:54:24.803    
    9               0:55:56.394     0:06:38.981     21.455 kbps     54.967 kbps     00:59:10.255    33.625 kbps     00:59:10.296    29.112 kbps     00:59:07.752    111.858 bytes   608.171 bytes   00:59:10.546    
    10              1:02:35.376     0:06:34.227     25.412 kbps     44.997 kbps     01:07:18.117    34.914 kbps     01:03:17.919    32.844 kbps     01:03:15.124    132.485 bytes   615.065 bytes   01:05:24.253    
    11              1:09:09.603     0:04:50.748     25.812 kbps     43.120 kbps     01:11:43.048    36.333 kbps     01:11:41.088    35.351 kbps     01:11:34.832    134.574 bytes   687.391 bytes   01:12:54.453    
    12              1:14:00.352     0:10:46.437     17.038 kbps     44.830 kbps     01:18:06.014    36.656 kbps     01:14:05.065    32.874 kbps     01:14:02.104    88.832 bytes    508.416 bytes   01:18:18.568    
    
    STREAM DIAGNOSTICS:
    
    File            PID             Type            Codec           Language                Seconds                 Bitrate                 Bytes           Packets         
    ----            ---             ----            -----           --------                --------------          --------------          -------------   -----           
    00019.M2TS      4113 (0x1011)   0xEA            VC-1                                    10,969                  19.861                  27.232.449      148.172         
    00019.M2TS      4352 (0x1100)   0x81            AC3             fra (French)            10,969                  193                     264.960         1.725           
    00019.M2TS      4353 (0x1101)   0x81            AC3             eng (English)           10,969                  193                     264.960         1.725           
    00019.M2TS      4608 (0x1200)   0x90            PGS             eng (English)           10,969                  4                       5.497           37              
    00008.M2TS      4113 (0x1011)   0xEA            VC-1                                    5075,612                22.954                  14.563.185.321  79.221.217      
    00008.M2TS      4352 (0x1100)   0x81            AC3             fra (French)            5075,612                640                     406.059.520     2.379.255       
    00008.M2TS      4353 (0x1101)   0x81            AC3             eng (English)           5075,612                640                     406.059.520     2.379.255       
    00008.M2TS      4608 (0x1200)   0x90            PGS             eng (English)           5075,612                20                      12.626.958      73.886
    <---- END FORUMS PASTE ---->

    QUICK SUMMARY:

    Disc Title: DISTRICT_13
    Disc Size: 22.420.298.670 bytes
    Protection: AACS
    BD-Java: No
    Playlist: 00007.MPLS
    Size: 16.200.142.848 bytes
    Length: 1:24:46
    Total Bitrate: 25,48 Mbps
    Video: VC-1 Video / 22946 kbps / 1080p / 23,976 fps / 16:9 / Advanced Profile 3
    Audio: English / Dolby Digital Audio / 5.1 / 48 kHz / 640 kbps / DN -4dB
    Audio: French / Dolby Digital Audio / 5.1 / 48 kHz / 640 kbps / DN -4dB
    Subtitle: English / 19,867 kbps


    1 0:00:00.000 0:02:41.161 21.491 kbps 36.402 kbps 00:02:07.502 29.047 kbps 00:01:32.008 27.136 kbps 00:01:27.962 112.015 bytes 689.369 bytes 00:00:32.699
    2 0:02:41.161 0:08:54.492 21.662 kbps 38.215 kbps 00:06:40.900 29.332 kbps 00:05:10.810 26.279 kbps 00:09:18.307 112.938 bytes 664.170 bytes 00:10:51.317
    3 0:11:35.653 0:01:28.755 20.239 kbps 29.561 kbps 00:12:29.623 24.857 kbps 00:12:27.913 22.509 kbps 00:12:26.996 105.517 bytes 628.250 bytes 00:11:52.503
    4 0:13:04.408 0:06:53.746 21.964 kbps 38.347 kbps 00:18:47.126 33.824 kbps 00:18:46.875 31.669 kbps 00:18:44.748 114.512 bytes 665.132 bytes 00:16:57.558
    5 0:19:58.155 0:02:48.418 20.813 kbps 34.938 kbps 00:22:38.732 24.974 kbps 00:22:38.482 23.048 kbps 00:21:39.881 108.509 bytes 653.232 bytes 00:22:46.198
    6 0:22:46.573 0:10:39.055 22.681 kbps 37.698 kbps 00:29:05.618 31.285 kbps 00:33:12.115 28.156 kbps 00:29:05.618 118.250 bytes 633.150 bytes 00:25:59.849
    7 0:33:25.628 0:02:47.542 18.197 kbps 30.669 kbps 00:34:12.300 24.503 kbps 00:34:11.758 23.137 kbps 00:34:09.547 94.870 bytes 663.163 bytes 00:33:56.826
    8 0:36:13.171 0:07:18.062 21.185 kbps 36.745 kbps 00:41:13.179 28.637 kbps 00:41:11.343 27.709 kbps 00:42:44.311 110.446 bytes 659.182 bytes 00:36:27.727
    9 0:43:31.233 0:06:08.284 18.692 kbps 30.499 kbps 00:47:04.696 23.780 kbps 00:43:40.868 21.955 kbps 00:43:35.863 97.454 bytes 689.369 bytes 00:48:00.669
    10 0:49:39.518 0:06:03.780 19.445 kbps 31.105 kbps 00:54:12.624 26.371 kbps 00:54:10.872 24.851 kbps 00:54:11.039 101.380 bytes 682.850 bytes 00:53:19.738
    11 0:55:43.298 0:06:39.065 19.369 kbps 38.698 kbps 00:59:00.036 28.494 kbps 00:58:56.282 25.048 kbps 00:58:54.447 100.979 bytes 689.369 bytes 00:59:32.860
    12 1:02:22.363 0:03:20.533 23.127 kbps 34.487 kbps 01:04:11.722 28.388 kbps 01:04:07.718 26.277 kbps 01:03:01.778 120.575 bytes 662.857 bytes 01:05:33.721
    13 1:05:42.897 0:03:13.526 21.346 kbps 31.592 kbps 01:07:03.894 25.008 kbps 01:08:30.356 24.541 kbps 01:08:07.041 111.286 bytes 626.107 bytes 01:06:01.749
    14 1:08:56.423 0:05:50.016 23.296 kbps 37.584 kbps 01:12:28.344 32.718 kbps 01:12:26.592 31.170 kbps 01:12:25.716 121.457 bytes 653.188 bytes 01:12:25.758
    15 1:14:46.440 0:05:45.678 19.850 kbps 33.802 kbps 01:17:52.292 25.958 kbps 01:18:08.767 24.292 kbps 01:17:50.999 103.486 bytes 670.294 bytes 01:16:05.852
    16 1:20:32.118 0:04:01.950 19.730 kbps 25.443 kbps 01:21:16.913 24.394 kbps 01:21:16.371 23.856 kbps 01:21:13.994 102.882 bytes 613.025 bytes 01:24:32.484

    STREAM DIAGNOSTICS:

    File PID Type Codec Language Seconds Bitrate Bytes Packets
    ---- --- ---- ----- -------- -------------- -------------- ------------- -----
    00000.M2TS 4113 (0x1011) 0x02 MPEG-2 5073,944 20.990 13.312.520.433 72.421.530
    00000.M2TS 4352 (0x1100) 0x85 DTS-HD HR fra (French) 5073,944 3.018 1.914.192.656 11.416.656
    00000.M2TS 4353 (0x1101) 0x85 DTS-HD HR eng (English) 5073,944 3.018 1.914.192.656 11.416.656
    00000.M2TS 4354 (0x1102) 0x81 AC3-EX fra (French) 5073,944 640 405.926.400 2.378.475
    00000.M2TS 4355 (0x1103) 0x81 AC3-EX eng (English) 5073,944 640 405.926.400 2.378.475
    00000.M2TS 4608 (0x1200) 0x90 PGS eng (English) 5073,944 62 39.432.665 220.926
    00000.M2TS 4609 (0x1201) 0x90 PGS spa (Spanish) 5073,944 63 40.246.961 224.936

    [/code]


    District B13 Ultimate - US-Version


    Code:
                                                                                                                    Total   Video                                             
    Title                                                           Codec   Length  Movie Size      Disc Size       Bitrate Bitrate Main Audio Track                          Secondary Audio Track
    -----                                                           ------  ------- --------------  --------------  ------- ------- ------------------                        ---------------------
    00000.MPLS                                                      VC-1    1:41:00 29.202.511.872  35.553.296.272  38,55   29,36   DTS-HD Master 5.1 2419Kbps (48kHz/16-bit)
    Code:
    DISC INFO:
    
    Disc Title:     DISTRICT_13_ULTIMATUM
    Disc Size:      35.553.296.272 bytes
    Protection:     AACS
    BD-Java:        Yes
    BDInfo:         0.5.6
    
    PLAYLIST REPORT:
    
    Name:                   00000.MPLS
    Length:                 1:41:00 (h:m:s)
    Size:                   29.202.511.872 bytes
    Total Bitrate:          38,55 Mbps
    
    VIDEO:
    
    Codec                   Bitrate             Description     
    -----                   -------             -----------     
    VC-1 Video              29359 kbps          1080p / 23,976 fps / 16:9 / Advanced Profile 3
    
    AUDIO:
    
    Codec                           Language        Bitrate         Description     
    -----                           --------        -------         -----------     
    DTS-HD Master Audio             English         2419 kbps       5.1 / 48 kHz / 2419 kbps / 16-bit (DTS Core: 5.1 / 48 kHz / 1509 kbps / 16-bit)
    DTS-HD Master Audio             French          4537 kbps       5.1 / 48 kHz / 4537 kbps / 24-bit (DTS Core: 5.1 / 48 kHz / 1509 kbps / 24-bit)
    
    SUBTITLES:
    
    Codec                           Language        Bitrate         Description     
    -----                           --------        -------         -----------     
    Presentation Graphics           English         28,649 kbps                     
    Presentation Graphics           English         0,106 kbps                      
    Presentation Graphics           English         33,897 kbps                     
    Presentation Graphics           Spanish         30,492 kbps                     
    
    FILES:
    
    Name            Time In         Length          Size            Total Bitrate   
    ----            -------         ------          ----            -------------   
    00000.M2TS      0:00:00.000     1:41:00.554     29.202.511.872  38.548          
    
    CHAPTERS:
    
    Number          Time In         Length          Avg Video Rate  Max 1-Sec Rate  Max 1-Sec Time  Max 5-Sec Rate  Max 5-Sec Time  Max 10Sec Rate  Max 10Sec Time  Avg Frame Size  Max Frame Size  Max Frame Time  
    ------          -------         ------          --------------  --------------  --------------  --------------  --------------  --------------  --------------  --------------  --------------  --------------  
    1               0:00:00.000     0:08:16.329     30.692 kbps     46.327 kbps     00:02:11.840    38.063 kbps     00:02:00.286    36.262 kbps     00:03:13.735    160.488 bytes   642.005 bytes   00:01:40.016    
    2               0:08:16.329     0:08:09.447     32.865 kbps     47.244 kbps     00:14:23.988    38.426 kbps     00:09:38.077    36.918 kbps     00:09:40.621    171.342 bytes   551.702 bytes   00:08:43.022    
    3               0:16:25.776     0:08:38.476     33.349 kbps     53.839 kbps     00:18:57.344    37.681 kbps     00:17:48.650    36.630 kbps     00:22:04.489    173.866 bytes   502.225 bytes   00:18:58.220    
    4               0:25:04.252     0:09:47.670     31.648 kbps     46.610 kbps     00:31:13.037    39.352 kbps     00:31:10.660    37.163 kbps     00:29:21.676    164.998 bytes   509.253 bytes   00:30:44.676    
    5               0:34:51.923     0:07:25.653     30.026 kbps     46.311 kbps     00:41:25.274    38.557 kbps     00:41:11.802    36.713 kbps     00:41:11.802    156.542 bytes   569.121 bytes   00:40:04.902    
    6               0:42:17.576     0:05:44.802     30.489 kbps     47.055 kbps     00:43:52.796    38.719 kbps     00:42:29.546    37.182 kbps     00:42:24.542    158.955 bytes   471.833 bytes   00:43:27.604    
    7               0:48:02.379     0:08:00.855     32.518 kbps     54.505 kbps     00:55:19.899    38.328 kbps     00:48:52.137    36.911 kbps     00:48:26.486    169.533 bytes   563.173 bytes   00:48:57.059    
    8               0:56:03.234     0:06:39.357     28.667 kbps     45.423 kbps     01:00:55.818    36.819 kbps     01:00:56.069    35.005 kbps     01:00:53.900    149.455 bytes   879.489 bytes   01:00:54.025    
    9               1:02:42.592     0:08:56.160     28.872 kbps     48.139 kbps     01:07:38.429    37.772 kbps     01:06:50.840    36.551 kbps     01:07:18.034    150.525 bytes   594.283 bytes   01:09:05.015    
    10              1:11:38.752     0:08:08.571     31.339 kbps     49.688 kbps     01:17:28.518    38.897 kbps     01:13:23.982    36.852 kbps     01:16:51.857    163.386 bytes   581.377 bytes   01:18:43.468    
    11              1:19:47.324     0:13:50.120     28.364 kbps     48.274 kbps     01:27:06.638    37.671 kbps     01:24:17.719    36.172 kbps     01:24:14.883    147.875 bytes   552.446 bytes   01:33:37.445    
    12              1:33:37.445     0:07:23.109     12.210 kbps     50.791 kbps     01:35:29.557    33.293 kbps     01:35:52.872    32.529 kbps     01:35:52.955    63.700 bytes    669.199 bytes   01:34:20.112    
    
    STREAM DIAGNOSTICS:
    
    File            PID             Type            Codec           Language                Seconds                 Bitrate                 Bytes           Packets         
    ----            ---             ----            -----           --------                --------------          --------------          -------------   -----           
    00000.M2TS      4113 (0x1011)   0xEA            VC-1                                    6060,429                29.360                  22.241.704.444  120.966.554     
    00000.M2TS      4352 (0x1100)   0x86            DTS-HD MA       eng (English)           6060,429                2.419                   1.832.427.500   10.896.216      
    00000.M2TS      4353 (0x1101)   0x86            DTS-HD MA       fra (French)            6060,429                4.538                   3.437.415.252   19.625.590      
    00000.M2TS      4608 (0x1200)   0x90            PGS             eng (English)           6060,429                29                      21.703.913      124.875         
    00000.M2TS      4609 (0x1201)   0x90            PGS             eng (English)           6060,429                0                       79.967          463             
    00000.M2TS      4610 (0x1202)   0x90            PGS             eng (English)           6060,429                34                      25.679.515      147.412         
    00000.M2TS      4611 (0x1203)   0x90            PGS             spa (Spanish)           6060,429                30                      23.099.696      132.231


    District B13 Ultimate - UK-Version


    [/code]

    Code:
    DISC INFO:
    
    Disc Title:     DISTRICT_13
    Disc Size:      23.439.857.162 bytes
    Protection:     AACS
    BD-Java:        No
    BDInfo:         0.5.6
    
    PLAYLIST REPORT:
    
    Name:                   00009.MPLS
    Length:                 1:40:57 (h:m:s)
    Size:                   19.347.087.360 bytes
    Total Bitrate:          25,55 Mbps
    
    VIDEO:
    
    Codec                   Bitrate             Description     
    -----                   -------             -----------     
    VC-1 Video              18990 kbps          1080p / 24 fps / 16:9 / Advanced Profile 3
    
    AUDIO:
    
    Codec                           Language        Bitrate         Description     
    -----                           --------        -------         -----------     
    DTS-HD Master Audio             English         2494 kbps       5.1 / 48 kHz / 2494 kbps / 16-bit (DTS Core: 5.1 / 48 kHz / 1509 kbps / 16-bit)
    DTS-HD Master Audio             French          2451 kbps       5.1 / 48 kHz / 2451 kbps / 16-bit (DTS Core: 5.1 / 48 kHz / 1509 kbps / 16-bit)
    
    SUBTITLES:
    
    Codec                           Language        Bitrate         Description     
    -----                           --------        -------         -----------     
    Presentation Graphics           English         26,143 kbps                     
    Presentation Graphics           English         0,124 kbps                      
    
    FILES:
    
    Name            Time In         Length          Size            Total Bitrate   
    ----            -------         ------          ----            -------------   
    00011.M2TS      0:00:00.000     1:40:57.041     19.347.087.360  25.553          
    
    CHAPTERS:
    
    Number          Time In         Length          Avg Video Rate  Max 1-Sec Rate  Max 1-Sec Time  Max 5-Sec Rate  Max 5-Sec Time  Max 10Sec Rate  Max 10Sec Time  Avg Frame Size  Max Frame Size  Max Frame Time  
    ------          -------         ------          --------------  --------------  --------------  --------------  --------------  --------------  --------------  --------------  --------------  --------------  
    1               0:00:00.000     0:08:17.250     22.968 kbps     47.610 kbps     00:07:30.833    36.977 kbps     00:05:57.875    35.552 kbps     00:05:55.791    119.784 bytes   723.359 bytes   00:01:41.625    
    2               0:08:17.250     0:04:57.958     21.189 kbps     40.303 kbps     00:08:28.874    31.236 kbps     00:08:26.916    28.275 kbps     00:08:22.166    110.358 bytes   409.562 bytes   00:08:28.916    
    3               0:13:15.208     0:11:48.958     23.316 kbps     48.097 kbps     00:17:30.958    37.426 kbps     00:18:24.458    31.787 kbps     00:18:19.041    121.437 bytes   493.426 bytes   00:15:01.791    
    4               0:25:04.166     0:09:46.333     17.756 kbps     30.141 kbps     00:30:44.250    25.248 kbps     00:34:14.625    22.196 kbps     00:34:09.583    92.482 bytes    507.768 bytes   00:30:44.291    
    5               0:34:50.500     0:08:31.958     18.183 kbps     36.318 kbps     00:41:32.458    30.496 kbps     00:41:31.708    27.931 kbps     00:41:28.375    94.701 bytes    413.026 bytes   00:40:03.875    
    6               0:43:22.458     0:08:01.625     20.275 kbps     48.640 kbps     00:50:00.416    30.418 kbps     00:49:56.625    27.489 kbps     00:50:44.583    105.599 bytes   475.726 bytes   00:51:24.083    
    7               0:51:24.083     0:07:59.583     18.649 kbps     36.145 kbps     00:52:10.583    31.079 kbps     00:52:10.416    27.921 kbps     00:52:09.208    97.129 bytes    479.798 bytes   00:52:29.500    
    8               0:59:23.666     0:08:36.958     17.444 kbps     33.543 kbps     01:00:51.666    25.790 kbps     01:07:40.041    22.816 kbps     01:07:33.583    90.855 bytes    619.219 bytes   01:00:54.000    
    9               1:08:00.625     0:06:29.833     18.202 kbps     41.262 kbps     01:12:22.458    30.550 kbps     01:12:19.000    27.599 kbps     01:08:51.416    94.803 bytes    480.848 bytes   01:08:55.666    
    10              1:14:30.458     0:08:30.875     19.052 kbps     47.990 kbps     01:17:25.125    33.645 kbps     01:14:42.166    29.176 kbps     01:14:40.166    99.230 bytes    563.183 bytes   01:17:25.541    
    11              1:23:01.333     0:10:31.916     17.121 kbps     36.425 kbps     01:27:02.833    26.298 kbps     01:26:58.875    24.065 kbps     01:26:55.750    89.171 bytes    387.556 bytes   01:26:33.375    
    12              1:33:33.250     0:07:23.791     12.761 kbps     28.893 kbps     01:34:46.416    22.944 kbps     01:36:44.333    21.467 kbps     01:36:40.625    66.487 bytes    503.403 bytes   01:35:29.458    
    
    STREAM DIAGNOSTICS:
    
    File            PID             Type            Codec           Language                Seconds                 Bitrate                 Bytes           Packets         
    ----            ---             ----            -----           --------                --------------          --------------          -------------   -----           
    00011.M2TS      4113 (0x1011)   0xEA            VC-1                                    6056,917                18.990                  14.377.702.497  78.226.691      
    00011.M2TS      4352 (0x1100)   0x86            DTS-HD MA       fra (French)            6056,917                2.451                   1.855.944.524   11.022.149      
    00011.M2TS      4353 (0x1101)   0x86            DTS-HD MA       eng (English)           6056,917                2.494                   1.888.573.844   11.199.799      
    00011.M2TS      4608 (0x1200)   0x90            PGS             eng (English)           6056,917                26                      19.793.500      113.967         
    00011.M2TS      4609 (0x1201)   0x90            PGS             eng (English)           6056,917                0                       93.523          534
    Miniaturansichten angehängter Grafiken Miniaturansichten angehängter Grafiken Vergleich der District 13 Box UK gegen US-district-b13-us.png   Vergleich der District 13 Box UK gegen US-district-b13-uk.png   Vergleich der District 13 Box UK gegen US-district-b13-ultimate-us.png   Vergleich der District 13 Box UK gegen US-district-b13-ultimate-uk.png  
    Geändert von akira62 (05.10.10 um 22:51:39 Uhr)

Aktive Benutzer

Aktive Benutzer

Aktive Benutzer in diesem Thema: 1 (Registrierte Benutzer: 0, Gäste: 1)

Ähnliche Themen

  1. District 9 am 11.3.2010
    Von Neotekk im Forum Filme auf Blu-ray (Deutschland)
    Antworten: 221
    Letzter Beitrag: 09.11.10, 11:25:57
  2. District 9 - EUR 9,97
    Von MR im Forum Blu-ray Deutschland & Ausland
    Antworten: 0
    Letzter Beitrag: 31.05.10, 08:25:53
  3. USA - District 9 - 29.12.09
    Von Charles Dudewin im Forum Filme auf Blu-ray (Import)
    Antworten: 11
    Letzter Beitrag: 06.02.10, 15:40:27
  4. [Im Kino] DISTRICT 13: ULTIMATUM
    Von CAYJACK im Forum Jetzt im Kino
    Antworten: 9
    Letzter Beitrag: 01.03.09, 20:14:03
  5. Vergleich: HD gegen Blu
    Von Sectomy im Forum Allgemeine Fragen zum Thema HD
    Antworten: 41
    Letzter Beitrag: 07.09.07, 17:29:19

Lesezeichen

Lesezeichen

Berechtigungen

  • Neue Themen erstellen: Nein
  • Themen beantworten: Nein
  • Anhänge hochladen: Nein
  • Beiträge bearbeiten: Nein
  •