Cinefacts

Seite 85 von 117 ErsteErste ... 357581828384858687888995 ... LetzteLetzte
Ergebnis 1.681 bis 1.700 von 2335
  1. #1681
    Schweizer Patriot :)
    Registriert seit
    31.05.02
    Ort
    Switzerland
    Alter
    36
    Beiträge
    19.823

    AW: Armee der Finsternis - demnächst von Koch

    Liebe leute die diskussion darüber war ja in ordnung aber es sollte jetzt hier bitte nicht seitenweise weitergehen die reviews einer anderen seite zu zerpflücken. Die betreffende seite hat übrigens ebenfalls einen forenteil und sicher auch email kontaktmöglichkeiten

    Ich denke die einzelnen standpunkte wurden hier von allen klar dargelegt und man richtet sich jetzt lieber direkt an entsprechende stellen. Bringt wohl auch mehr

  2. #1682
    Registrierter Benutzer
    Registriert seit
    21.01.09
    Ort
    Neverland
    Alter
    58
    Beiträge
    4.853

    AW: Armee der Finsternis - demnächst von Koch

    Weiß nicht ob es schon irgendwo stand daher die Frage:Warum wurde denn nicht auch der 5.1 Sound auf dem Euro/US Cut verwendet ?

  3. #1683
    Lone Wolf
    Registriert seit
    07.02.05
    Beiträge
    6.125

    AW: Armee der Finsternis - demnächst von Koch

    Weil es ein scheppernder blecherner Flickenteppich ist, der mit echtem 5.1 nichts zu tun hat.

    Bzgl. der deutschen Synchro hat Koch alles vernünftig geregelt.

    Lediglich der O-Ton hätte schon die 5.1 Upmixe vertragen, da diese im Vergleich zum LP/MGM Schrott ganz gut klangen und auch durchaus Spass machten.

  4. #1684
    Registrierter Benutzer
    Registriert seit
    21.01.09
    Ort
    Neverland
    Alter
    58
    Beiträge
    4.853

    AW: Armee der Finsternis - demnächst von Koch

    Zitat Zitat von J.J._McQuade Beitrag anzeigen
    Weil es ein scheppernder blecherner Flickenteppich ist, der mit echtem 5.1 nichts zu tun hat.

    Bzgl. der deutschen Synchro hat Koch alles vernünftig geregelt.

    Lediglich der O-Ton hätte schon die 5.1 Upmixe vertragen, da diese im Vergleich zum LP/MGM Schrott ganz gut klangen und auch durchaus Spass machten.
    Danke' wusste ich bis jetzt gar nicht.Alle die mir bis jetzt von ihren Disc erzählten meinten der wäre ganz brauchbar gewesen.

  5. #1685
    Senior Killer!
    Registriert seit
    22.07.01
    Beiträge
    8.648

    AW: Armee der Finsternis - demnächst von Koch

    Zitat Zitat von J.J._McQuade Beitrag anzeigen
    Weil es ein scheppernder blecherner Flickenteppich ist, der mit echtem 5.1 nichts zu tun hat.

    Bzgl. der deutschen Synchro hat Koch alles vernünftig geregelt.

    Lediglich der O-Ton hätte schon die 5.1 Upmixe vertragen, da diese im Vergleich zum LP/MGM Schrott ganz gut klangen und auch durchaus Spass machten.
    Englischer 5.1 ist ja dabei (wenn auch als Hidden Feature )

  6. #1686
    Registrierter Benutzer
    Registriert seit
    15.01.05
    Beiträge
    6.750

    AW: Armee der Finsternis - demnächst von Koch

    Falls es diese hier noch nicht gab (ich hab' hier den Überblick verloren), anbei mal BD-Info-Scans von DC/Int/US (in dieser Reihenfolge):

    DC:
    Code:
                                                                                                                    Total   Video                                             
    Title                                                           Codec   Length  Movie Size      Disc Size       Bitrate Bitrate Main Audio Track                          Secondary Audio Track
    -----                                                           ------  ------- --------------  --------------  ------- ------- ------------------                        ---------------------
    00006.MPLS                                                      AVC     1:36:22 16.227.717.120  16.819.600.288  22,45   17,99   DTS-HD Master 5.1 2084Kbps (48kHz/16-bit)
    Code:
     
    DISC INFO:
     
    Disc Title:     ARMEE DER FINSTERNIS DISC 1
    Disc Size:      16.819.600.288 bytes
    Protection:     AACS
    BD-Java:        No
    BDInfo:         0.5.6
     
    PLAYLIST REPORT:
     
    Name:                   00006.MPLS
    Length:                 1:36:22 (h:m:s)
    Size:                   16.227.717.120 bytes
    Total Bitrate:          22,45 Mbps
     
    VIDEO:
     
    Codec                   Bitrate             Description     
    -----                   -------             -----------     
    MPEG-4 AVC Video        17991 kbps          1080p / 23,976 fps / 16:9 / High Profile 4.1
     
    AUDIO:
     
    Codec                           Language        Bitrate         Description     
    -----                           --------        -------         -----------     
    DTS-HD Master Audio             English         2084 kbps       5.1 / 48 kHz / 2084 kbps / 16-bit (DTS Core: 5.1 / 48 kHz / 1509 kbps / 16-bit)
    Dolby Digital Audio             English         320 kbps        2.0 / 48 kHz / 320 kbps / Dolby Surround
    Dolby Digital Audio             English         320 kbps        2.0 / 48 kHz / 320 kbps
    Dolby Digital Audio             German          320 kbps        2.0 / 48 kHz / 320 kbps / Dolby Surround
     
    SUBTITLES:
     
    Codec                           Language        Bitrate         Description     
    -----                           --------        -------         -----------     
    Presentation Graphics           English         15,678 kbps                     
    Presentation Graphics           German          17,997 kbps                     
    Presentation Graphics           German          2,235 kbps                      
     
    FILES:
     
    Name            Time In         Length          Size            Total Bitrate   
    ----            -------         ------          ----            -------------   
    00018.M2TS      0:00:00.000     1:36:22.193     16.227.717.120  22.452          
     
    CHAPTERS:
     
    Number          Time In         Length          Avg Video Rate  Max 1-Sec Rate  Max 1-Sec Time  Max 5-Sec Rate  Max 5-Sec Time  Max 10Sec Rate  Max 10Sec Time  Avg Frame Size  Max Frame Size  Max Frame Time  
    ------          -------         ------          --------------  --------------  --------------  --------------  --------------  --------------  --------------  --------------  --------------  --------------  
    1               0:00:00.000     0:03:14.319     15.150 kbps     23.526 kbps     00:00:16.474    21.555 kbps     00:00:14.514    21.218 kbps     00:00:13.471    78.969 bytes    271.893 bytes   00:00:20.270    
    2               0:03:14.319     0:06:09.952     17.621 kbps     24.212 kbps     00:05:01.884    21.793 kbps     00:06:24.759    21.465 kbps     00:06:25.927    91.867 bytes    355.322 bytes   00:03:48.770    
    3               0:09:24.272     0:10:01.142     17.743 kbps     29.100 kbps     00:10:14.989    23.927 kbps     00:10:14.488    22.146 kbps     00:10:14.363    92.504 bytes    373.689 bytes   00:19:11.275    
    4               0:19:25.414     0:03:47.685     21.086 kbps     28.052 kbps     00:19:33.046    26.405 kbps     00:19:31.920    25.511 kbps     00:19:28.208    109.934 bytes   267.486 bytes   00:22:54.039    
    5               0:23:13.100     0:02:39.701     18.300 kbps     25.504 kbps     00:25:32.781    22.637 kbps     00:25:32.781    21.614 kbps     00:24:23.462    95.406 bytes    250.772 bytes   00:25:33.615    
    6               0:25:52.801     0:05:48.431     19.340 kbps     30.085 kbps     00:29:03.283    25.151 kbps     00:27:37.781    23.888 kbps     00:27:37.238    100.832 bytes   369.088 bytes   00:29:05.243    
    7               0:31:41.232     0:09:59.348     17.850 kbps     29.719 kbps     00:31:41.232    24.610 kbps     00:31:41.232    23.021 kbps     00:31:41.232    93.062 bytes    291.020 bytes   00:39:29.992    
    8               0:41:40.581     0:08:35.097     17.383 kbps     28.184 kbps     00:47:54.788    21.654 kbps     00:48:06.174    20.796 kbps     00:48:04.256    90.625 bytes    318.602 bytes   00:49:58.787    
    9               0:50:15.679     0:04:41.823     17.806 kbps     23.317 kbps     00:50:39.703    21.459 kbps     00:50:36.908    21.083 kbps     00:50:36.950    92.834 bytes    242.598 bytes   00:53:54.856    
    10              0:54:57.502     0:04:06.496     17.940 kbps     24.868 kbps     00:58:17.327    22.347 kbps     00:58:15.074    20.676 kbps     00:57:37.537    93.529 bytes    320.346 bytes   00:56:58.915    
    11              0:59:03.998     0:02:49.377     20.071 kbps     29.036 kbps     01:00:35.590    23.912 kbps     00:59:24.394    23.430 kbps     00:59:22.934    104.641 bytes   343.746 bytes   01:01:44.450    
    12              1:01:53.376     0:10:51.942     20.679 kbps     31.388 kbps     01:07:38.429    26.989 kbps     01:07:38.429    25.178 kbps     01:07:37.845    107.809 bytes   328.775 bytes   01:09:31.625    
    13              1:12:45.319     0:10:54.528     20.189 kbps     29.861 kbps     01:12:55.788    24.320 kbps     01:22:59.599    23.193 kbps     01:22:54.594    105.254 bytes   287.858 bytes   01:21:47.402    
    14              1:23:39.848     0:02:51.588     19.001 kbps     27.006 kbps     01:25:42.220    24.199 kbps     01:25:57.777    22.687 kbps     01:25:56.526    99.062 bytes    265.027 bytes   01:25:17.821    
    15              1:26:31.436     0:04:26.307     17.185 kbps     26.494 kbps     01:27:59.774    22.636 kbps     01:30:43.563    21.668 kbps     01:30:43.563    89.597 bytes    380.266 bytes   01:29:12.889    
    16              1:30:57.743     0:05:24.449     7.441 kbps      14.553 kbps     01:32:42.515    12.912 kbps     01:32:40.930    12.064 kbps     01:32:36.509    38.800 bytes    227.221 bytes   01:32:42.598    
     
    STREAM DIAGNOSTICS:
     
    File            PID             Type            Codec           Language                Seconds                 Bitrate                 Bytes           Packets         
    ----            ---             ----            -----           --------                --------------          --------------          -------------   -----           
    00018.M2TS      4113 (0x1011)   0x1B            AVC                                     5782,110                17.992                  13.003.732.284  70.753.672      
    00018.M2TS      4352 (0x1100)   0x81            AC3             deu (German)            5782,110                320                     231.310.080     1.445.688       
    00018.M2TS      4353 (0x1101)   0x81            AC3             eng (English)           5782,110                320                     231.310.080     1.445.688       
    00018.M2TS      4354 (0x1102)   0x81            AC3             eng (English)           5782,110                320                     231.310.080     1.445.688       
    00018.M2TS      4355 (0x1103)   0x86            DTS-HD MA       eng (English)           5782,110                2.084                   1.506.488.092   9.083.827       
    00018.M2TS      4608 (0x1200)   0x90            PGS             deu (German)            5782,110                18                      13.007.551      75.373          
    00018.M2TS      4609 (0x1201)   0x90            PGS             eng (English)           5782,110                16                      11.331.583      66.261          
    00018.M2TS      4610 (0x1202)   0x90            PGS             deu (German)            5782,110                2                       1.615.299       9.425

    Internationale Fassung:
    Code:
                                                                                                                    Total   Video                                             
    Title                                                           Codec   Length  Movie Size      Disc Size       Bitrate Bitrate Main Audio Track                          Secondary Audio Track
    -----                                                           ------  ------- --------------  --------------  ------- ------- ------------------                        ---------------------
    00007.MPLS                                                      AVC     1:28:44 22.837.678.080  43.194.249.839  34,31   32,04   DD AC3 2.0 320Kbps
    Code:
     
    DISC INFO:
     
    Disc Title:     ARMEE DER FINSTERNIS DISC 2
    Disc Size:      43.194.249.839 bytes
    Protection:     AACS
    BD-Java:        No
    BDInfo:         0.5.6
     
    PLAYLIST REPORT:
     
    Name:                   00007.MPLS
    Length:                 1:28:44 (h:m:s)
    Size:                   22.837.678.080 bytes
    Total Bitrate:          34,31 Mbps
     
    VIDEO:
     
    Codec                   Bitrate             Description     
    -----                   -------             -----------     
    MPEG-4 AVC Video        32041 kbps          1080p / 23,976 fps / 16:9 / High Profile 4.1
     
    AUDIO:
     
    Codec                           Language        Bitrate         Description     
    -----                           --------        -------         -----------     
    Dolby Digital Audio             English         320 kbps        2.0 / 48 kHz / 320 kbps / Dolby Surround
    Dolby Digital Audio             German          320 kbps        2.0 / 48 kHz / 320 kbps / Dolby Surround
     
    SUBTITLES:
     
    Codec                           Language        Bitrate         Description     
    -----                           --------        -------         -----------     
    Presentation Graphics           English         16,011 kbps                     
    Presentation Graphics           German          18,274 kbps                     
    Presentation Graphics           German          0,100 kbps                      
     
    FILES:
     
    Name            Time In         Length          Size            Total Bitrate   
    ----            -------         ------          ----            -------------   
    00000.M2TS      0:00:00.000     1:28:44.569     22.837.678.080  34.313          
     
    CHAPTERS:
     
    Number          Time In         Length          Avg Video Rate  Max 1-Sec Rate  Max 1-Sec Time  Max 5-Sec Rate  Max 5-Sec Time  Max 10Sec Rate  Max 10Sec Time  Avg Frame Size  Max Frame Size  Max Frame Time  
    ------          -------         ------          --------------  --------------  --------------  --------------  --------------  --------------  --------------  --------------  --------------  --------------  
    1               0:00:00.000     0:03:14.110     32.036 kbps     54.978 kbps     00:00:12.429    36.629 kbps     00:00:08.425    34.141 kbps     00:00:03.420    166.985 bytes   794.257 bytes   00:00:13.430    
    2               0:03:14.110     0:06:10.453     32.044 kbps     44.466 kbps     00:05:39.714    34.786 kbps     00:05:39.589    33.482 kbps     00:05:39.380    167.063 bytes   772.340 bytes   00:03:43.014    
    3               0:09:24.564     0:10:00.975     32.054 kbps     44.614 kbps     00:10:14.614    34.288 kbps     00:13:28.182    33.601 kbps     00:12:45.681    167.117 bytes   660.500 bytes   00:10:14.655    
    4               0:19:25.539     0:03:48.144     32.038 kbps     41.063 kbps     00:19:25.539    34.407 kbps     00:22:48.575    33.316 kbps     00:22:49.284    167.030 bytes   614.670 bytes   00:22:49.493    
    5               0:23:13.683     0:02:38.658     32.045 kbps     41.923 kbps     00:25:32.864    34.569 kbps     00:25:30.779    33.569 kbps     00:25:25.774    167.070 bytes   558.825 bytes   00:24:37.017    
    6               0:25:52.342     0:05:48.765     32.049 kbps     44.684 kbps     00:29:02.991    35.092 kbps     00:29:00.363    33.589 kbps     00:27:36.821    167.091 bytes   716.014 bytes   00:26:11.778    
    7               0:31:41.107     0:07:30.366     32.033 kbps     42.226 kbps     00:33:15.994    34.066 kbps     00:38:39.233    33.096 kbps     00:37:19.487    167.004 bytes   869.505 bytes   00:37:11.145    
    8               0:39:11.474     0:08:35.264     32.043 kbps     41.982 kbps     00:42:06.398    34.426 kbps     00:42:03.354    33.267 kbps     00:41:58.807    167.059 bytes   776.385 bytes   00:47:45.779    
    9               0:47:46.738     0:04:41.656     32.035 kbps     39.560 kbps     00:51:33.715    33.912 kbps     00:51:30.670    32.997 kbps     00:48:01.795    167.016 bytes   625.439 bytes   00:51:33.757    
    10              0:52:28.395     0:04:06.496     32.063 kbps     39.730 kbps     00:54:29.015    34.354 kbps     00:54:58.128    33.147 kbps     00:53:21.990    167.163 bytes   685.666 bytes   00:54:29.057    
    11              0:56:34.891     0:02:49.377     32.043 kbps     42.112 kbps     00:57:53.761    34.114 kbps     00:57:53.595    33.413 kbps     00:58:10.111    167.055 bytes   687.400 bytes   00:58:40.266    
    12              0:59:24.269     0:07:24.944     32.040 kbps     47.247 kbps     01:03:51.619    35.328 kbps     01:06:16.138    33.605 kbps     01:04:28.948    167.042 bytes   796.751 bytes   01:05:08.779    
    13              1:06:49.213     0:04:29.060     32.036 kbps     46.947 kbps     01:07:13.237    34.974 kbps     01:07:13.237    33.577 kbps     01:06:58.139    167.020 bytes   642.807 bytes   01:06:58.180    
    14              1:11:18.274     0:08:19.790     32.038 kbps     41.961 kbps     01:12:31.847    34.321 kbps     01:15:27.439    33.441 kbps     01:15:22.851    167.033 bytes   633.638 bytes   01:17:34.941    
    15              1:19:38.064     0:03:40.887     32.013 kbps     41.559 kbps     01:21:39.519    33.837 kbps     01:22:15.055    33.024 kbps     01:22:36.826    166.900 bytes   511.843 bytes   01:20:31.785    
    16              1:23:18.952     0:05:25.616     32.038 kbps     33.579 kbps     01:25:02.514    32.349 kbps     01:24:58.510    32.196 kbps     01:24:53.505    167.052 bytes   359.395 bytes   01:25:03.515    
     
    STREAM DIAGNOSTICS:
     
    File            PID             Type            Codec           Language                Seconds                 Bitrate                 Bytes           Packets         
    ----            ---             ----            -----           --------                --------------          --------------          -------------   -----           
    00000.M2TS      4113 (0x1011)   0x1B            AVC                                     5324,402                32.042                  21.325.845.368  115.972.411     
    00000.M2TS      4352 (0x1100)   0x81            AC3             deu (German)            5324,402                320                     212.989.440     1.331.184       
    00000.M2TS      4353 (0x1101)   0x81            AC3             eng (English)           5324,402                320                     212.989.440     1.331.184       
    00000.M2TS      4608 (0x1200)   0x90            PGS             deu (German)            5324,402                18                      12.162.569      70.420          
    00000.M2TS      4609 (0x1201)   0x90            PGS             eng (English)           5324,402                16                      10.656.659      62.232          
    00000.M2TS      4610 (0x1202)   0x90            PGS             deu (German)            5324,402                0                       66.761          392

    US-Fassung:
    Code:
                                                                                                                    Total   Video                                             
    Title                                                           Codec   Length  Movie Size      Disc Size       Bitrate Bitrate Main Audio Track                          Secondary Audio Track
    -----                                                           ------  ------- --------------  --------------  ------- ------- ------------------                        ---------------------
    00008.MPLS                                                      VC-1    1:20:53 19.791.783.936  43.194.249.839  32,62   25,91   DTS-HD Master 5.1 4277Kbps (48kHz/24-bit)
    Code:
     
    DISC INFO:
     
    Disc Title:     ARMEE DER FINSTERNIS DISC 2
    Disc Size:      43.194.249.839 bytes
    Protection:     AACS
    BD-Java:        No
    BDInfo:         0.5.6
     
    PLAYLIST REPORT:
     
    Name:                   00008.MPLS
    Length:                 1:20:53 (h:m:s)
    Size:                   19.791.783.936 bytes
    Total Bitrate:          32,62 Mbps
     
    VIDEO:
     
    Codec                   Bitrate             Description     
    -----                   -------             -----------     
    VC-1 Video              25911 kbps          1080p / 23,976 fps / 16:9 / Advanced Profile 3
     
    AUDIO:
     
    Codec                           Language        Bitrate         Description     
    -----                           --------        -------         -----------     
    DTS-HD Master Audio             English         4277 kbps       5.1 / 48 kHz / 4277 kbps / 24-bit (DTS Core: 5.1 / 48 kHz / 1509 kbps / 24-bit)
    Dolby Digital Audio             English         320 kbps        2.0 / 48 kHz / 320 kbps / Dolby Surround
    Dolby Digital Audio             German          320 kbps        2.0 / 48 kHz / 320 kbps / Dolby Surround
     
    SUBTITLES:
     
    Codec                           Language        Bitrate         Description     
    -----                           --------        -------         -----------     
    Presentation Graphics           English         16,365 kbps                     
    Presentation Graphics           German          18,803 kbps                     
    Presentation Graphics           German          0,317 kbps                      
     
    FILES:
     
    Name            Time In         Length          Size            Total Bitrate   
    ----            -------         ------          ----            -------------   
    00022.M2TS      0:00:00.000     1:20:53.682     19.791.783.936  32.621          
     
    CHAPTERS:
     
    Number          Time In         Length          Avg Video Rate  Max 1-Sec Rate  Max 1-Sec Time  Max 5-Sec Rate  Max 5-Sec Time  Max 10Sec Rate  Max 10Sec Time  Avg Frame Size  Max Frame Size  Max Frame Time  
    ------          -------         ------          --------------  --------------  --------------  --------------  --------------  --------------  --------------  --------------  --------------  --------------  
    1               0:00:00.000     0:03:27.165     23.516 kbps     38.249 kbps     00:00:27.527    36.305 kbps     00:00:27.527    35.459 kbps     00:00:27.444    123.947 bytes   395.601 bytes   00:00:34.075    
    2               0:03:27.165     0:06:03.738     33.077 kbps     43.864 kbps     00:03:55.985    37.673 kbps     00:04:19.592    36.494 kbps     00:08:56.577    172.447 bytes   477.938 bytes   00:09:03.417    
    3               0:09:30.903     0:09:54.719     31.812 kbps     48.795 kbps     00:13:25.638    38.374 kbps     00:13:00.488    35.857 kbps     00:09:54.051    165.852 bytes   482.472 bytes   00:10:03.519    
    4               0:19:25.622     0:03:48.478     31.631 kbps     42.314 kbps     00:22:38.440    36.446 kbps     00:20:45.869    35.929 kbps     00:21:58.859    164.910 bytes   372.227 bytes   00:22:56.708    
    5               0:23:14.101     0:01:44.229     28.493 kbps     36.070 kbps     00:24:47.652    34.513 kbps     00:24:46.151    34.165 kbps     00:24:42.063    148.548 bytes   448.054 bytes   00:24:58.079    
    6               0:24:58.330     0:03:40.845     32.500 kbps     41.862 kbps     00:25:44.167    37.661 kbps     00:25:40.956    36.208 kbps     00:25:35.700    169.438 bytes   469.693 bytes   00:27:29.481    
    7               0:28:39.175     0:06:53.830     20.779 kbps     35.199 kbps     00:35:13.986    29.864 kbps     00:28:39.175    28.521 kbps     00:32:02.170    108.333 bytes   341.158 bytes   00:35:12.235    
    8               0:35:33.005     0:07:41.878     22.864 kbps     40.136 kbps     00:40:51.407    32.200 kbps     00:41:18.267    31.383 kbps     00:41:18.267    119.201 bytes   413.936 bytes   00:43:11.630    
    9               0:43:14.883     0:04:23.721     24.565 kbps     34.973 kbps     00:43:34.778    34.269 kbps     00:43:31.525    32.074 kbps     00:43:29.773    128.071 bytes   316.533 bytes   00:43:29.815    
    10              0:47:38.605     0:03:39.761     23.296 kbps     33.240 kbps     00:49:46.775    31.984 kbps     00:49:44.648    30.033 kbps     00:49:40.769    121.452 bytes   322.303 bytes   00:49:07.444    
    11              0:51:18.366     0:01:58.368     22.988 kbps     39.027 kbps     00:53:12.230    35.702 kbps     00:53:08.643    32.164 kbps     00:53:06.683    119.849 bytes   383.269 bytes   00:53:13.023    
    12              0:53:16.735     0:07:40.501     26.807 kbps     42.660 kbps     00:57:38.955    35.109 kbps     00:58:30.298    33.742 kbps     01:00:16.446    139.757 bytes   367.404 bytes   00:58:44.604    
    13              1:00:57.236     0:02:31.359     27.575 kbps     43.045 kbps     01:02:21.779    37.085 kbps     01:02:20.319    33.513 kbps     01:02:15.314    143.765 bytes   422.934 bytes   01:02:22.196    
    14              1:03:28.596     0:08:18.331     27.052 kbps     42.408 kbps     01:08:09.293    35.929 kbps     01:11:13.936    32.831 kbps     01:08:34.026    141.036 bytes   346.466 bytes   01:11:09.431    
    15              1:11:46.927     0:03:41.262     28.602 kbps     41.893 kbps     01:14:59.786    36.645 kbps     01:14:30.174    35.230 kbps     01:14:27.171    149.120 bytes   389.635 bytes   01:12:45.235    
    16              1:15:28.190     0:05:25.491     8.488 kbps      18.100 kbps     01:17:11.793    16.373 kbps     01:17:10.876    14.793 kbps     01:17:06.788    44.259 bytes    347.107 bytes   01:17:12.252    
     
    STREAM DIAGNOSTICS:
     
    File            PID             Type            Codec           Language                Seconds                 Bitrate                 Bytes           Packets         
    ----            ---             ----            -----           --------                --------------          --------------          -------------   -----           
    00022.M2TS      4113 (0x1011)   0xEA            VC-1                                    4853,557                25.912                  15.720.595.994  85.508.177      
    00022.M2TS      4352 (0x1100)   0x81            AC3             deu (German)            4853,557                320                     194.147.840     1.213.424       
    00022.M2TS      4353 (0x1101)   0x81            AC3             eng (English)           4853,557                320                     194.195.200     1.213.720       
    00022.M2TS      4354 (0x1102)   0x86            DTS-HD MA       eng (English)           4853,557                4.277                   2.594.728.632   14.858.889      
    00022.M2TS      4608 (0x1200)   0x90            PGS             deu (German)            4853,557                19                      11.408.084      66.100          
    00022.M2TS      4609 (0x1201)   0x90            PGS             eng (English)           4853,557                16                      9.928.753       58.064          
    00022.M2TS      4610 (0x1202)   0x90            PGS             deu (German)            4853,557                0                       192.507         1.156

    Zu screen shots komme ich heute auf keinen Fall mehr und die wollte hier ja eigentlich auch ohnehin schon jemand anders machen - k.A. ob ich diese jetzt vielleicht auch nur übersehen habe(?).

    Ich bin bis auf das auch bei mir mininmal schiefe Crystal Drop (und die Tatsache, dass ich die DVDs nicht gebraucht hätte) soweit jedenfalls auch sehr zufrieden mit dieser VÖ.

  7. #1687
    on tour...
    Registriert seit
    16.01.03
    Ort
    München
    Alter
    39
    Beiträge
    5.523

    AW: Armee der Finsternis - demnächst von Koch

    Zitat Zitat von jacca Beitrag anzeigen
    Danke' wusste ich bis jetzt gar nicht.Alle die mir bis jetzt von ihren Disc erzählten meinten der wäre ganz brauchbar gewesen.
    Ist er auch. Da scheppert nichts und blechern ist da auch nix. Ich hab ein brauchbares Soundsystem und bin, was blechernen Ton angeht, sehr empfindlich. Dafür kommen an manchen Stellen die zusätzlichen Soundeffekte auf den Rears sogar richtig gut (Waldgeistverfolgung, umkrachende Bäume, Carexplosion etc.). Einziger Nachteil ist, dass an einigen Stellen kurz mit anderen Sprechern synchronisiert wurde. Ist mir aber nur in der Endschlacht bei einem Dialog mit dem bösen Ash aufgefallen. Hab mir die MGM DVD erst kürzlich wieder mal angeschaut. Ist weniger schlimm, als oft behauptet wird. War selber überrascht.

  8. #1688
    Tourist
    Registriert seit
    19.07.01
    Alter
    41
    Beiträge
    5.029

    AW: Armee der Finsternis - demnächst von Koch

    Zitat Zitat von The Killer Beitrag anzeigen
    Englischer 5.1 ist ja dabei (wenn auch als Hidden Feature )
    wie hab ich das zu verstehen?

  9. #1689
    Registrierter Benutzer
    Registriert seit
    30.01.02
    Beiträge
    421

    AW: Armee der Finsternis - demnächst von Koch

    Ist doch echt sehr schöne Box geworden.
    Ich persönlich bin zufrieden.

    Gruß
    Naboo Pilot 111

  10. #1690
    Horten
    Gast

    AW: Armee der Finsternis - demnächst von Koch

    Zitat Zitat von J.J._McQuade Beitrag anzeigen
    Lediglich der O-Ton hätte schon die 5.1 Upmixe vertragen,
    Das ist genauso schwachsinnig englisch 5.1 Upmixe zu fordern bei ein 20jahre alten Film, und ich habe gerade nochmal in die MGM-DVD rein gehört, der deutsche 5.1 Dolby Digital(448Kbps) Sound hört sich noch relativ gut an.
    Zitat Zitat von Franklin Beitrag anzeigen
    Hab mir die MGM DVD erst kürzlich wieder mal angeschaut. Ist weniger schlimm, als oft behauptet wird. War selber überrascht.

  11. #1691
    on tour...
    Registriert seit
    16.01.03
    Ort
    München
    Alter
    39
    Beiträge
    5.523

    AW: Armee der Finsternis - demnächst von Koch

    @ twoflowers: Koch hat im Audiomenü eine entsprechende Anwahl vergessen, aber es geht über die Audiotaste der Player-FB.
    Geändert von Franklin (26.04.13 um 18:59:44 Uhr)

  12. #1692
    Tourist
    Registriert seit
    19.07.01
    Alter
    41
    Beiträge
    5.029

    AW: Armee der Finsternis - demnächst von Koch

    Danke! Ist das wirklich "vergessen" oder wollte man nicht daß die leute diese hören?

  13. #1693
    on tour...
    Registriert seit
    16.01.03
    Ort
    München
    Alter
    39
    Beiträge
    5.523

    AW: Armee der Finsternis - demnächst von Koch

    Warum sollte man das denn nicht wollen?

  14. #1694
    Registrierter Benutzer
    Registriert seit
    19.05.06
    Beiträge
    407

    AW: Armee der Finsternis - demnächst von Koch

    Zitat Zitat von Marko Beitrag anzeigen
    Zähl doch mal bitte die FSK Flatschen Beiträge, bevor Du so etwas behauptest. Es ist langsam echt nicht mehr zu ertragen: immer sollen sich Diskussionen angeblich auf einmal nur noch um die Verpackung oder den FSK Flatschen handeln, sobald mal 2-3 Beiträge dazu im Thread erfolgen. Wenn Du genauer gelesen hättest, wäre Dir aufgefallen, daß die Diskussion sich momentan seitenweise mit dem Review und dem Equipment/Fähigkeit des Reviewers beschäftigt - aber das scheint Dich dann wieder nicht zu stören
    Was ich damit sagen wollte,ist das meine frage trotz allerdem untergegangen ist und ich durch deinen Aufreger jetzt auch nicht schlauer bin

  15. #1695
    Registrierter Benutzer
    Registriert seit
    19.11.06
    Beiträge
    3.845

    AW: Armee der Finsternis - demnächst von Koch

    Meine Erfahrungen mit zwei Media Märkten --> ist und bleibt halt einfach ein Schei**laden (die MM-Fanboys dürfen das gerne überlesen!):

    Gestern:
    In "meiner" Filiale hatten sie genau 3 mal die Army of Darkness Box bekommen und angeblich nur 2 Shirts dazu.
    "Das wäre aber auch egal, da sich der Mist eh nicht verkaufen würde" - naja an mich haben sie somit schon mal Keine verkauft!

    Heute:
    Habe jetzt mal noch bei einem anderen Media Markt im Umkreis angerufen.
    Auf meine Frage nach der Armee der Finsternis Ultimate Edition bekam ich die Auskunft, dass sie nur eine Box bestellt haben, weil die ja eh geschnitten sei .... vielleicht ja von den Experten vor Ort mit einem Teppichmesser?

    Auf einen Erklärungsversuch meinerseits bekam ich nur plump zu hören "Na und - ist trotzdem nur die 16er Fassung!".

    Auf meine Frage nach dem T-Shirt, das es dazu gibt, wurde der gute Mann dann pampig und auf die Frage nach der Größe, hat er erstmal den Hörer kräftig auf den Tisch geschlagen, dass es mir jetzt noch im Ohr pfeift.

    Nach der Information "M" war das Thema dann endgültig abgehakt.

  16. #1696
    HBO Fan
    Registriert seit
    23.07.01
    Ort
    Hamburg
    Alter
    47
    Beiträge
    17.598

    AW: Armee der Finsternis - demnächst von Koch

    Zitat Zitat von derflo04 Beitrag anzeigen
    Was ich damit sagen wollte,ist das meine frage trotz allerdem untergegangen ist und ich durch deinen Aufreger jetzt auch nicht schlauer bin
    Du hast aber explizit eine Thematik angesprochen, die daran schuld gewesen sein sollte und hiermit die Leute, die das Thema FSK Flatschen interessiert als Schuldige hingestellt, weshalb Deine Frage übersehen wurde - und gerade in diesem Thread ist dieses Thema nun wirklich nicht breit getreten worden. Übrigens: wenn ich Dir hätte helfen können, hätte ich das trotz meines Aufregers getan - das eine hat also mit dem anderen nichts zu tun. Leider kann ich Deine Frage aber nicht beantworten, weshalb Du wohl weiter auf Antwort warten musst.

  17. #1697
    Ari Gold rocks
    Registriert seit
    22.10.04
    Ort
    Rheurdt
    Alter
    32
    Beiträge
    20.143

    AW: Armee der Finsternis - demnächst von Koch

    Zitat Zitat von maku Beitrag anzeigen
    "Das wäre aber auch egal, da sich der Mist eh nicht verkaufen würde"

    Auf meine Frage nach der Armee der Finsternis Ultimate Edition bekam ich die Auskunft, dass sie nur eine Box bestellt haben, weil die ja eh geschnitten sei .... vielleicht ja von den Experten vor Ort mit einem Teppichmesser?

    Auf einen Erklärungsversuch meinerseits bekam ich nur plump zu hören "Na und - ist trotzdem nur die 16er Fassung!".
    Wie genial dumm sind die denn. "Ich bin doch nicht blöd", ja ne is klar.

  18. #1698
    HBO Fan
    Registriert seit
    23.07.01
    Ort
    Hamburg
    Alter
    47
    Beiträge
    17.598

    AW: Armee der Finsternis - demnächst von Koch

    Zitat Zitat von maku Beitrag anzeigen
    Auf meine Frage nach dem T-Shirt, das es dazu gibt, wurde der gute Mann dann pampig und auf die Frage nach der Größe, hat er erstmal den Hörer kräftig auf den Tisch geschlagen, dass es mir jetzt noch im Ohr pfeift.
    Wenn Mitarbeiter pampig werden, ist mein erster Gang immer der Filialleiter. Ich lass mich doch nicht anmeckern als zahlender oder auich nur potentieller Kunde!

  19. #1699
    Retired
    Registriert seit
    19.07.01
    Ort
    Vollhonl
    Alter
    46
    Beiträge
    10.528

    AW: Armee der Finsternis - demnächst von Koch

    Zitat Zitat von Franklin Beitrag anzeigen
    Warum sollte man das denn nicht wollen?
    Vielleicht lizenzrechtliche Gründe?
    Aber da kann man natürlich nur mutmaßen...

  20. #1700
    Teufelstänzer
    Registriert seit
    14.03.02
    Ort
    Berlin
    Beiträge
    1.392

    AW: Armee der Finsternis - demnächst von Koch

    Kann mal einer sagen, wie es bei der Euro-Fassung nun bezüglich der bei MGM-Auflage unnötig neu-synchronisierten Stellen aussieht? Alles korrekt jetzt? Hatte Koch nämlich mit der originalen kompletten Ur-Synchro versorgt.

Aktive Benutzer

Aktive Benutzer

Aktive Benutzer in diesem Thema: 1 (Registrierte Benutzer: 0, Gäste: 1)

Lesezeichen

Lesezeichen

Berechtigungen

  • Neue Themen erstellen: Nein
  • Themen beantworten: Nein
  • Anhänge hochladen: Nein
  • Beiträge bearbeiten: Nein
  •