Cinefacts

Seite 2 von 2 ErsteErste 12
Ergebnis 21 bis 28 von 28
  1. #21
    Registrierter Benutzer
    Registriert seit
    15.01.05
    Beiträge
    6.534

    AW: The Blues Brothers auf Blu

    Vielleicht gibt es ja lossless Tonspuren als easter eggs .

  2. #22
    -------------------
    Registriert seit
    28.10.04
    Beiträge
    6.961

    AW: The Blues Brothers auf Blu

    Zitat Zitat von andreasy969 Beitrag anzeigen
    Vielleicht gibt es ja lossless Tonspuren als easter eggs .
    À la Fox - BD/DVD Menuesprache ändern und voilà die HD Master Audiospuren sind da.
    Vielleicht bekommen wir das ja noch heraus warum Universal so handelte.

  3. #23
    1-man German wax factory
    Registriert seit
    15.08.01
    Ort
    Potsdam-Havelland
    Alter
    37
    Beiträge
    10.586

    AW: The Blues Brothers auf Blu

    Was gibt's denn da rauszufinden? Die BD ist randvoll und Universal hat halt lieber am HD-Sound gespart als an der Bitrate (ca. 23 Mbps). Ist ja auch logisch, weil der Film hat eine so komplexe Kornstruktur, wenn man da auf 15 Mbps oder weniger gegangen wäre, hätte man entweder glattbügeln müssen oder hätte Probleme mit Artefakten bekommen.

    Entgegen der weitläufigen Meinung in anderen Foren wurde bei BB der Film NICHT 2x abgelegt, sondern gebrancht! Weiß nicht, wer das Gerücht in die Welt gesetzt hat, aber es stimmt nicht!

    Das hier ist die Playlist der Kinofassung:

    50201.M2TS 0:00:00.000 0:05:29.370 0 0
    50315.M2TS 0:05:29.370 0:06:20.588 0 0
    50302.M2TS 0:11:49.959 0:14:43.090 0 0
    50317.M2TS 0:26:33.049 0:02:54.090 0 0
    50304.M2TS 0:29:27.140 0:12:39.091 0 0
    50318.M2TS 0:42:06.232 0:05:29.829 0 0
    50305.M2TS 0:47:36.061 0:04:12.585 0 0
    50319.M2TS 0:51:48.647 0:05:27.618 0 0
    50306.M2TS 0:57:16.266 0:01:02.062 0 0
    50320.M2TS 0:58:18.328 0:09:02.208 0 0
    50307.M2TS 1:07:20.536 0:08:09.530 0 0
    50321.M2TS 1:15:30.067 0:05:07.473 0 0
    50308.M2TS 1:20:37.540 0:01:55.740 0 0
    50322.M2TS 1:22:33.281 0:02:35.113 0 0
    50309.M2TS 1:25:08.394 0:01:27.337 0 0
    50323.M2TS 1:26:35.732 0:02:14.801 0 0
    50310.M2TS 1:28:50.533 0:15:26.216 0 0
    50324.M2TS 1:44:16.750 0:02:14.968 0 0
    50311.M2TS 1:46:31.718 0:05:00.508 0 0
    50325.M2TS 1:51:32.227 0:03:05.351 0 0
    50312.M2TS 1:54:37.578 0:02:54.007 0 0
    50326.M2TS 1:57:31.586 0:02:44.289 0 0
    50313.M2TS 2:00:15.875 0:01:20.955 0 0
    50327.M2TS 2:01:36.831 0:01:30.548 0 0
    50314.M2TS 2:03:07.379 0:09:42.582 0 0
    Und das die der Extended:

    50328.M2TS 0:00:00.000 0:06:07.533 0 0
    50315.M2TS 0:06:07.533 0:06:20.588 0 0
    50329.M2TS 0:12:28.122 0:16:27.861 0 0
    50317.M2TS 0:28:55.984 0:02:54.090 0 0
    50331.M2TS 0:31:50.074 0:17:37.556 0 0
    50318.M2TS 0:49:27.631 0:05:29.829 0 0
    50332.M2TS 0:54:57.460 0:06:03.279 0 0
    50319.M2TS 1:01:00.740 0:05:27.618 0 0
    50333.M2TS 1:06:28.359 0:00:59.559 0 0
    50320.M2TS 1:07:27.918 0:09:02.208 0 0
    50334.M2TS 1:16:30.127 0:08:58.246 0 0
    50321.M2TS 1:25:28.373 0:05:07.473 0 0
    50335.M2TS 1:30:35.846 0:02:09.045 0 0
    50322.M2TS 1:32:44.892 0:02:35.113 0 0
    50336.M2TS 1:35:20.005 0:01:37.180 0 0
    50323.M2TS 1:36:57.186 0:02:14.801 0 0
    50337.M2TS 1:39:11.987 0:18:47.626 0 0
    50324.M2TS 1:57:59.614 0:02:14.968 0 0
    50338.M2TS 2:00:14.582 0:05:27.869 0 0
    50325.M2TS 2:05:42.451 0:03:05.351 0 0
    50339.M2TS 2:08:47.803 0:03:01.014 0 0
    50326.M2TS 2:11:48.817 0:02:44.289 0 0
    50343.M2TS 2:14:33.106 0:01:25.168 0 0
    50327.M2TS 2:15:58.274 0:01:30.548 0 0
    50344.M2TS 2:17:28.823 0:10:18.117 0 0
    Geändert von LJSilver (31.07.11 um 23:39:11 Uhr)

  4. #24
    Registrierter Benutzer
    Registriert seit
    15.01.05
    Beiträge
    6.534

    AW: The Blues Brothers auf Blu

    Zitat Zitat von LJSilver Beitrag anzeigen
    Was gibt's denn da rauszufinden? Die BD ist randvoll
    Womit die randvoll ist. Ich verstehe es halt nicht. Die Extended kommt auf knapp 30GB, und sollte (da seamless branching) den kompletten Platzbedarf des Films ausmachen. Wofür geht bei der Disc denn der restliche Platz drauf? Das erklärt mir Dein Posting immer noch nicht. Daß der Film nicht 2 mal drauf ist, hatten wir ja schon geklärt.

    Ich hab' das Gefühl man hat hier Sachen doppelt "gebrancht", die einmal gereicht hätten. Die Langfassung enthält meines Wissens ja eigentlich nur zusätzliche Szenen, weshalb man mit den Daten der Langfassung meiner Meinung (!) eigentlich auf den kompletten Platzbedarf beider Versionen kommen müßte. Aber wahrscheinlich ist dem wohl nicht so.
    Geändert von andreasy969 (01.08.11 um 08:00:51 Uhr)

  5. #25
    -------------------
    Registriert seit
    28.10.04
    Beiträge
    6.961

    AW: The Blues Brothers auf Blu

    Zitat Zitat von andreasy969 Beitrag anzeigen
    Womit die randvoll ist. Ich verstehe es halt nicht. Die Extended kommt auf knapp 30GB, und sollte (da seamless branching) den kompletten Platzbedarf des Films ausmachen. Wofür geht bei der Disc denn der restliche Platz drauf? Das erklärt mir Dein Posting immer noch nicht. Daß der Film nicht 2 mal drauf ist, hatten wir ja schon geklärt.
    Ja eben - ich kann LJSilver auch nicht folgen.
    Das der Film nicht 2x enthalten ist soweit waren wir ja auch schon.
    Aus den Daten wird mir jedenfalls nicht klar wofür der ganze Platz drauf geht.

  6. #26
    1-man German wax factory
    Registriert seit
    15.08.01
    Ort
    Potsdam-Havelland
    Alter
    37
    Beiträge
    10.586

    AW: The Blues Brothers auf Blu

    Einfach mal hinschauen, was ich gepostet habe. Des Rätsels Lösung ist relativ einfach: Es wurden nicht nur GENAU die zusätzlichen Szenen gebrachnt, sondern jeweils auch alles drumherum (mehrere Minuten) noch mit. Man muss ich ja nur mal die gemeinsamen M2TS-Dateien anschauen, dann sieht man schon, dass die nicht passenden sehr, sehr viele Minuten ausmachen. Zudem gibt es auch noch die einstündige Doku in hochskaliertem SD.

    Warum as Branching so gemqacht wurde, darüber können wir uns IMHO kein Urteil erlauben, weil wir die genaue Technik nicht kennen. So weit ich das ergoogeln konnte müssen immer die Kapitel/Cells ausgetauscht werden. Einfach einfügen geht wohl nicht.

    Folgende M2TS gibt es in der Extended nicht:

    50201.M2TS 5:29
    50302.M2TS bis 50314.M2TS

    Jetzt zählt einfach die Dauer (3. Spalte) zusammen und ihr erhaltet die Anzahl Minuten, die in der Kinofassung exklusiv gebrancht sind.
    Geändert von LJSilver (01.08.11 um 11:47:11 Uhr)

  7. #27
    Registrierter Benutzer
    Registriert seit
    15.01.05
    Beiträge
    6.534

    AW: The Blues Brothers auf Blu

    Zitat Zitat von LJSilver Beitrag anzeigen
    Warum as Branching so gemqacht wurde, darüber können wir uns IMHO kein Urteil erlauben, weil wir die genaue Technik nicht kennen.
    Um genau dieses Warum ging es mir doch. Ich frage mich halt warum man den Film so branchen muß, daß der so viel Platz braucht. Gladiator und Robin Hood - auch beide aus dem Hause Universal - sind z.T. länger, dürften beim branching meiner Meinung (!) nicht weniger kompliziert sein und haben beide DTS-HD MA. Da frage ich mich halt schon, was die da bei Blues Brothers gemacht haben.

    Wenn das hier (warum auch immer) nicht anders gehen sollte, wäre ich halt wieder beim 2 Disc Set. Egal wie man es dreht: Meiner Meinung ist das ganze halt irgendwie suboptimal gelöst.


    PS: Wie man aus Deinem Posting durch "einfaches Hinschauen" erkennen können sollte, daß die verschiedenen Dateien so viel Platz brauchen, erschließt sich mir übrigens auch nicht. Die Erklärung (auch das mit dem hochskalierten SD Feature) aus Deinem letzten Posting hätte meiner Meinung im ersten nichts geschadet (zumal wir die "Rohinformationen" selbst hier ja schon verlinkt hatten).
    Geändert von andreasy969 (01.08.11 um 19:12:56 Uhr)

  8. #28
    -------------------
    Registriert seit
    28.10.04
    Beiträge
    6.961

    AW: The Blues Brothers auf Blu

    Zitat Zitat von LJSilver Beitrag anzeigen
    Einfach mal hinschauen, was ich gepostet habe. Des Rätsels Lösung ist relativ einfach: Es wurden nicht nur GENAU die zusätzlichen Szenen gebrachnt, sondern jeweils auch alles drumherum (mehrere Minuten) noch mit. Man muss ich ja nur mal die gemeinsamen M2TS-Dateien anschauen, dann sieht man schon, dass die nicht passenden sehr, sehr viele Minuten ausmachen. Zudem gibt es auch noch die einstündige Doku in hochskaliertem SD.
    Okay danke ich versuche das alles mal zu verarbeiten.

Seite 2 von 2 ErsteErste 12

Aktive Benutzer

Aktive Benutzer

Aktive Benutzer in diesem Thema: 1 (Registrierte Benutzer: 0, Gäste: 1)

Lesezeichen

Lesezeichen

Berechtigungen

  • Neue Themen erstellen: Nein
  • Themen beantworten: Nein
  • Anhänge hochladen: Nein
  • Beiträge bearbeiten: Nein
  •