Cinefacts

Seite 4 von 7 ErsteErste 1234567 LetzteLetzte
Ergebnis 61 bis 80 von 121
  1. #61
    Registrierter Benutzer
    Registriert seit
    28.02.08
    Ort
    Hessen
    Alter
    40
    Beiträge
    2.531

    AW: DIE 36 KAMMERN DER SHAOLIN (Trilogie) 24.02.2012

    Hier vom ersten Teil der Serie die BD-Info Auswertung

    Code:
                                                                                                                    Total   Video                                             
    Title                                                           Codec   Length  Movie Size      Disc Size       Bitrate Bitrate Main Audio Track                          Secondary Audio Track
    -----                                                           ------  ------- --------------  --------------  ------- ------- ------------------                        ---------------------
    00005.MPLS                                                      AVC     1:56:01 15.129.526.272  49.115.681.684  17,39   13,28   DTS-HD Master 5.1 2839Kbps (48kHz/24-bit)
    Code:
    DISC INFO:
    
    Disc Title:     Shaolin Box
    Disc Size:      49.115.681.684 bytes
    Protection:     AACS
    BD-Java:        Yes
    Extras:         50Hz Content
    BDInfo:         0.5.8
    
    PLAYLIST REPORT:
    
    Name:                   00005.MPLS
    Length:                 1:56:01.663 (h:m:s.ms)
    Size:                   15.129.526.272 bytes
    Total Bitrate:          17,39 Mbps
    
    VIDEO:
    
    Codec                   Bitrate             Description     
    -----                   -------             -----------     
    MPEG-4 AVC Video        13279 kbps          1080p / 23,976 fps / 16:9 / High Profile 4.1
    
    AUDIO:
    
    Codec                           Language        Bitrate         Description     
    -----                           --------        -------         -----------     
    DTS-HD Master Audio             German          2839 kbps       5.1 / 48 kHz / 2839 kbps / 24-bit (DTS Core: 5.1 / 48 kHz / 1509 kbps / 24-bit)
    Dolby Digital Audio             Chinese         192 kbps        2.0 / 48 kHz / 192 kbps
    
    FILES:
    
    Name            Time In         Length          Size            Total Bitrate   
    ----            -------         ------          ----            -------------   
    00005.M2TS      0:00:00.000     1:56:01.663     15.129.526.272  17.386          
    
    CHAPTERS:
    
    Number          Time In         Length          Avg Video Rate  Max 1-Sec Rate  Max 1-Sec Time  Max 5-Sec Rate  Max 5-Sec Time  Max 10Sec Rate  Max 10Sec Time  Avg Frame Size  Max Frame Size  Max Frame Time  
    ------          -------         ------          --------------  --------------  --------------  --------------  --------------  --------------  --------------  --------------  --------------  --------------  
    1               0:00:00.000     1:56:01.663     13.279 kbps     42.344 kbps     00:29:21.384    30.160 kbps     00:46:45.177    27.311 kbps     00:02:03.581    69.228 bytes    393.785 bytes   01:55:46.272    
    
    STREAM DIAGNOSTICS:
    
    File            PID             Type            Codec           Language                Seconds                 Bitrate                 Bytes           Packets         
    ----            ---             ----            -----           --------                --------------          --------------          -------------   -----           
    00005.M2TS      4113 (0x1011)   0x1B            AVC                                     6961,580                13.279                  11.555.081.493  62.897.318      
    00005.M2TS      4352 (0x1100)   0x86            DTS-HD MA       deu (German)            6961,580                2.840                   2.470.927.744   14.505.144      
    00005.M2TS      4353 (0x1101)   0x81            AC3             zho (Chinese)           6961,580                192                     167.079.936     1.087.760

  2. #62
    Wonky:Eye:Wota
    Registriert seit
    29.11.04
    Ort
    Rostock
    Alter
    32
    Beiträge
    1.747

    AW: DIE 36 KAMMERN DER SHAOLIN (Trilogie) 24.02.2012

    Kannst ja nochma mitm Bitrate Viewer scannen
    http://www.winhoros.de/docs/bitrate-viewer/

    Keine Untertitel ? Also für mich eh gestorben

  3. #63
    Registrierter Benutzer
    Registriert seit
    28.02.08
    Ort
    Hessen
    Alter
    40
    Beiträge
    2.531

    AW: DIE 36 KAMMERN DER SHAOLIN (Trilogie) 24.02.2012

    Hier BD-Info Teil 2

    Code:
                                                                                                                    Total   Video                                             
    Title                                                           Codec   Length  Movie Size      Disc Size       Bitrate Bitrate Main Audio Track                          Secondary Audio Track
    -----                                                           ------  ------- --------------  --------------  ------- ------- ------------------                        ---------------------
    00006.MPLS                                                      AVC     1:41:15 14.559.307.776  49.115.681.684  19,17   15,00   DTS-HD Master 5.1 2826Kbps (48kHz/24-bit)
    Code:
    DISC INFO:
    
    Disc Title:     Shaolin Box
    Disc Size:      49.115.681.684 bytes
    Protection:     AACS
    BD-Java:        Yes
    Extras:         50Hz Content
    BDInfo:         0.5.8
    
    PLAYLIST REPORT:
    
    Name:                   00006.MPLS
    Length:                 1:41:15.444 (h:m:s.ms)
    Size:                   14.559.307.776 bytes
    Total Bitrate:          19,17 Mbps
    
    VIDEO:
    
    Codec                   Bitrate             Description     
    -----                   -------             -----------     
    MPEG-4 AVC Video        15003 kbps          1080p / 23,976 fps / 16:9 / High Profile 4.1
    
    AUDIO:
    
    Codec                           Language        Bitrate         Description     
    -----                           --------        -------         -----------     
    DTS-HD Master Audio             German          2826 kbps       5.1 / 48 kHz / 2826 kbps / 24-bit (DTS Core: 5.1 / 48 kHz / 1509 kbps / 24-bit)
    Dolby Digital Audio             Chinese         192 kbps        2.0 / 48 kHz / 192 kbps
    
    FILES:
    
    Name            Time In         Length          Size            Total Bitrate   
    ----            -------         ------          ----            -------------   
    00006.M2TS      0:00:00.000     1:41:15.444     14.559.307.776  19.171          
    
    CHAPTERS:
    
    Number          Time In         Length          Avg Video Rate  Max 1-Sec Rate  Max 1-Sec Time  Max 5-Sec Rate  Max 5-Sec Time  Max 10Sec Rate  Max 10Sec Time  Avg Frame Size  Max Frame Size  Max Frame Time  
    ------          -------         ------          --------------  --------------  --------------  --------------  --------------  --------------  --------------  --------------  --------------  --------------  
    1               0:00:00.000     1:41:15.444     15.003 kbps     40.382 kbps     01:00:08.354    28.736 kbps     00:59:16.177    24.468 kbps     01:00:02.390    78.221 bytes    454.210 bytes   01:41:02.806    
    
    STREAM DIAGNOSTICS:
    
    File            PID             Type            Codec           Language                Seconds                 Bitrate                 Bytes           Packets         
    ----            ---             ----            -----           --------                --------------          --------------          -------------   -----           
    00006.M2TS      4113 (0x1011)   0x1B            AVC                                     6075,361                15.004                  11.394.087.201  62.009.970      
    00006.M2TS      4352 (0x1100)   0x86            DTS-HD MA       deu (German)            6075,361                2.826                   2.146.346.684   12.600.454      
    00006.M2TS      4353 (0x1101)   0x81            AC3             zho (Chinese)           6075,361                192                     145.810.944     949.290
    DIE 36 KAMMERN DER SHAOLIN (Trilogie) 24.02.2012-shaolin_box-teil-2.jpg

  4. #64
    Wonky:Eye:Wota
    Registriert seit
    29.11.04
    Ort
    Rostock
    Alter
    32
    Beiträge
    1.747

    AW: DIE 36 KAMMERN DER SHAOLIN (Trilogie) 24.02.2012

    Ein paar screenshots wären auch mal gut

  5. #65
    Jäger + Sammler
    Registriert seit
    03.02.02
    Ort
    Ruhrpott
    Beiträge
    335

    AW: DIE 36 KAMMERN DER SHAOLIN (Trilogie) 24.02.2012

    Zitat Zitat von nimrod85 Beitrag anzeigen
    Ein paar screenshots wären auch mal gut
    Warum? Ich denke, durch die fehlenden Untertitel ist er für dich gestorben?

  6. #66
    Wonky:Eye:Wota
    Registriert seit
    29.11.04
    Ort
    Rostock
    Alter
    32
    Beiträge
    1.747

    AW: DIE 36 KAMMERN DER SHAOLIN (Trilogie) 24.02.2012

    THX für die Playlist reports

    Joa, will trotzdem mal sehen was die Bildtechnisch so kann.

  7. #67
    Registrierter Benutzer
    Registriert seit
    28.02.08
    Ort
    Hessen
    Alter
    40
    Beiträge
    2.531

    AW: DIE 36 KAMMERN DER SHAOLIN (Trilogie) 24.02.2012

    Anhang 76021

    Hier die Stream Analyse für Teil 1

  8. #68
    Registrierter Benutzer
    Registriert seit
    28.02.08
    Ort
    Hessen
    Alter
    40
    Beiträge
    2.531

    AW: DIE 36 KAMMERN DER SHAOLIN (Trilogie) 24.02.2012

    Infos zum Teil 3

    Code:
                                                                                                                    Total   Video                                             
    Title                                                           Codec   Length  Movie Size      Disc Size       Bitrate Bitrate Main Audio Track                          Secondary Audio Track
    -----                                                           ------  ------- --------------  --------------  ------- ------- ------------------                        ---------------------
    00007.MPLS                                                      AVC     1:33:27 14.216.454.144  49.115.681.684  20,28   16,00   DTS-HD Master 5.1 2890Kbps (48kHz/24-bit)
    Code:
    DISC INFO:
    
    Disc Title:     Shaolin Box
    Disc Size:      49.115.681.684 bytes
    Protection:     AACS
    BD-Java:        Yes
    Extras:         50Hz Content
    BDInfo:         0.5.8
    
    PLAYLIST REPORT:
    
    Name:                   00007.MPLS
    Length:                 1:33:27.393 (h:m:s.ms)
    Size:                   14.216.454.144 bytes
    Total Bitrate:          20,28 Mbps
    
    VIDEO:
    
    Codec                   Bitrate             Description     
    -----                   -------             -----------     
    MPEG-4 AVC Video        16001 kbps          1080p / 23,976 fps / 16:9 / High Profile 4.1
    
    AUDIO:
    
    Codec                           Language        Bitrate         Description     
    -----                           --------        -------         -----------     
    DTS-HD Master Audio             German          2890 kbps       5.1 / 48 kHz / 2890 kbps / 24-bit (DTS Core: 5.1 / 48 kHz / 1509 kbps / 24-bit)
    Dolby Digital Audio             Chinese         192 kbps        2.0 / 48 kHz / 192 kbps
    
    FILES:
    
    Name            Time In         Length          Size            Total Bitrate   
    ----            -------         ------          ----            -------------   
    00007.M2TS      0:00:00.000     1:33:27.393     14.216.454.144  20.282          
    
    CHAPTERS:
    
    Number          Time In         Length          Avg Video Rate  Max 1-Sec Rate  Max 1-Sec Time  Max 5-Sec Rate  Max 5-Sec Time  Max 10Sec Rate  Max 10Sec Time  Avg Frame Size  Max Frame Size  Max Frame Time  
    ------          -------         ------          --------------  --------------  --------------  --------------  --------------  --------------  --------------  --------------  --------------  --------------  
    1               0:00:00.000     1:33:27.393     16.001 kbps     33.780 kbps     00:45:35.858    27.741 kbps     00:57:32.615    27.313 kbps     00:57:33.241    83.423 bytes    393.522 bytes   01:33:08.666    
    
    STREAM DIAGNOSTICS:
    
    File            PID             Type            Codec           Language                Seconds                 Bitrate                 Bytes           Packets         
    ----            ---             ----            -----           --------                --------------          --------------          -------------   -----           
    00007.M2TS      4113 (0x1011)   0x1B            AVC                                     5607,268                16.002                  11.215.633.325  61.033.454      
    00007.M2TS      4352 (0x1100)   0x86            DTS-HD MA       deu (German)            5607,268                2.890                   2.025.527.400   11.885.194      
    00007.M2TS      4353 (0x1101)   0x81            AC3             zho (Chinese)           5607,268                192                     134.578.176     876.160
    Anhang 76023

    Bilder werden noch folgen. Aber erst wenn ich ein wenig mehr Luft habe.

  9. #69
    Registrierter Benutzer
    Registriert seit
    28.02.08
    Ort
    Hessen
    Alter
    40
    Beiträge
    2.531

    AW: DIE 36 KAMMERN DER SHAOLIN (Trilogie) 24.02.2012

    Bilder vom Teil 1






  10. #70
    Registrierter Benutzer
    Registriert seit
    06.11.06
    Alter
    30
    Beiträge
    69

    AW: DIE 36 KAMMERN DER SHAOLIN (Trilogie) 24.02.2012

    wirkt doch ganz akzeptabel,oder liege ich falsch?

  11. #71
    Registrierter Benutzer
    Registriert seit
    28.02.08
    Ort
    Hessen
    Alter
    40
    Beiträge
    2.531

    AW: DIE 36 KAMMERN DER SHAOLIN (Trilogie) 24.02.2012

    Bilder von Teil 2






  12. #72
    Registrierter Benutzer
    Registriert seit
    28.02.08
    Ort
    Hessen
    Alter
    40
    Beiträge
    2.531

    AW: DIE 36 KAMMERN DER SHAOLIN (Trilogie) 24.02.2012

    So der Rest - Teil 3








  13. #73
    Registrierter Benutzer
    Registriert seit
    28.02.08
    Ort
    Hessen
    Alter
    40
    Beiträge
    2.531

    AW: DIE 36 KAMMERN DER SHAOLIN (Trilogie) 24.02.2012

    Ehrlich gesagt bin ich mit dem Preis / Leistungsverhältnis auch sehr zufrieden. Aber warum keine Deutsche Untertitel da sind verstehe ich auch nicht.

  14. #74
    Wonky:Eye:Wota
    Registriert seit
    29.11.04
    Ort
    Rostock
    Alter
    32
    Beiträge
    1.747

    AW: DIE 36 KAMMERN DER SHAOLIN (Trilogie) 24.02.2012

    Thx,

    Die Untertitel waren wohl zu teuer

  15. #75
    Krötenwesen
    Registriert seit
    06.10.03
    Beiträge
    4.449

    AW: DIE 36 KAMMERN DER SHAOLIN (Trilogie) 24.02.2012

    auf DVD gab's auch keine Deutschen UT. ich sehe, die Blus haben Kinolaufzeit. die DVDs wurden auf PAL synchronisiert. ob der Ton mal WIEDER zu tief ist?

  16. #76
    Wonky:Eye:Wota
    Registriert seit
    29.11.04
    Ort
    Rostock
    Alter
    32
    Beiträge
    1.747

    AW: DIE 36 KAMMERN DER SHAOLIN (Trilogie) 24.02.2012

    Egal ob Deutsche oder Englische, nichts ist drauf

  17. #77
    Kastanienmännchenbastler
    Registriert seit
    17.07.02
    Ort
    Monroeville Mall
    Alter
    35
    Beiträge
    10.980

    AW: DIE 36 KAMMERN DER SHAOLIN (Trilogie) 24.02.2012

    1 & 2 sehen nicht wirklich nach HD aus

  18. #78
    Registrierter Benutzer
    Registriert seit
    27.02.04
    Ort
    Ulm
    Alter
    52
    Beiträge
    2.905

    AW: DIE 36 KAMMERN DER SHAOLIN (Trilogie) 24.02.2012

    Habe gerade mal kurz in die Blu-ray reingeschaut -Bei der Bildqualität ist bei allen drei Teilen für mich kein grosser Unterschied zu erkennen,was sehr positiv gemeint ist
    Ton ist auch ok! Bonus gibt es nur bei Teil 1! 3 Lange Dokumentationen über" Kung Fu" ,"Sword Fighting" und "Die Faszinierende Welt des Kung Fu" mit über 2 Stunden Laufzeit! Die scheinen auf dem ersten Blick sehr interessant zu sein-allerdings Ton nur in Englisch und wie die Hauptfilme auch ohne Untertitel
    Alles in allem 3 Filme mit guter Bildqualität für knapp 15 Euro sind ok Der ärgerliche Minuspunkt sind die fehlenden Untertitel
    Der billige Pappschuber und fehlendes Wendecover sind zu verschmerzen!
    Übrigens der Fehler im Titel bei Teil2 ist scheinbar ausgebessert worden-Nun steht da "Die Rückkehr zu den 36 Kammern der SHAOLIN"
    Geändert von TheLonleyMan (24.02.12 um 20:23:07 Uhr)

  19. #79
    Wonky:Eye:Wota
    Registriert seit
    29.11.04
    Ort
    Rostock
    Alter
    32
    Beiträge
    1.747

    AW: DIE 36 KAMMERN DER SHAOLIN (Trilogie) 24.02.2012

    Und Teil 1+2 sind wohl nur reingezoomt

    http://www.gemeinschaftsforum.com/fo...html#msg987955

  20. #80
    Umgezogen
    Registriert seit
    01.06.10
    Ort
    RLP
    Alter
    38
    Beiträge
    1.842

    AW: DIE 36 KAMMERN DER SHAOLIN (Trilogie) 24.02.2012

    Zitat Zitat von nimrod85 Beitrag anzeigen
    Und Teil 1+2 sind wohl nur reingezoomt

    http://www.gemeinschaftsforum.com/fo...html#msg987955

    "Habe verglichen mit der US BD (habeich zwar nicht aber halt die Bilder bei Caps a holic) und der MIB DVD."

    Das hier macht mich skeptisch. Vieleicht hat er nur den Overscan seines TVs nicht berücksichtigt bzw. nicht abgeschaltet.

Aktive Benutzer

Aktive Benutzer

Aktive Benutzer in diesem Thema: 1 (Registrierte Benutzer: 0, Gäste: 1)

Lesezeichen

Lesezeichen

Berechtigungen

  • Neue Themen erstellen: Nein
  • Themen beantworten: Nein
  • Anhänge hochladen: Nein
  • Beiträge bearbeiten: Nein
  •