Cinefacts

Seite 2 von 2 ErsteErste 12
Ergebnis 21 bis 33 von 33
  1. #21
    Registrierter Benutzer
    Registriert seit
    28.02.08
    Ort
    Hessen
    Alter
    40
    Beiträge
    2.531

    AW: Cabin in the Woods

    Egal wo Ihr kauft, lasst die Finger von der Italienischen Version des Filmes. BD25 Englisch nur in DTS, Qualität gegenüber der US sichtbar schlechter.

  2. #22
    hmpf!
    Registriert seit
    16.01.06
    Ort
    NRW
    Alter
    33
    Beiträge
    5.967

    AW: Cabin in the Woods

    Ist das nun die korrigierte Version bei Amazon.co.uk? Liegt nun bei 10 Pfund...

  3. #23
    Lone Wolf
    Registriert seit
    07.02.05
    Ort
    Wolf Creek
    Beiträge
    6.104

    AW: Cabin in the Woods

    So ist es...

  4. #24
    arroganter menschenfeind
    Registriert seit
    23.12.01
    Beiträge
    4.358

    AW: Cabin in the Woods

    Nachdem Amazon.co.uk das Problem inzwischen tot schweigt, habe ich den Kundenservice angeschrieben.
    Zuerst wollte man mir weiss machen, dass der Film ausverkauft sei und man mir deshalb keinen Ersatz schicken könnte.
    Auf den darauf folgenden Hinweis, dass er nur neu gelistet ist, wurde mir mitgeteilt, dass ich jetzt die defekte Blu-ray (auf meine Kosten) zurück senden soll, um dann die korrigierte Version neu zu bestellen.
    Nicht grade Kundenfreundlich finde ich, da die Scheibe sowiso in den Müll kommt und ich als Kunde nichts für die Fehler von Lionsgate kann, aber so komme ich letztendlich wenigstens günstiger weg.

  5. #25
    Drill Instructor
    Registriert seit
    12.03.04
    Ort
    Tooltown (SB)
    Beiträge
    3.164

    AW: Cabin in the Woods

    Also ich hatte bei HMV da scheinbar wirklich Glück. Musste weder anmailen noch sonst was. Mail kam: BD defekt, Ersatz wird verschickt, sobald vorhanden. Mail kam: Ersatzdisc raus, eingetroffen, fertig.

  6. #26
    arroganter menschenfeind
    Registriert seit
    23.12.01
    Beiträge
    4.358

    AW: Cabin in the Woods

    Schätzungsweise weil sie inzwischen gemerkt haben, dass ich in Deutschland wohne, wurde mir nun der Gesamtbetrag gutgeschrieben und ich kann die defekte behalten. Ist mir grade recht, inzwischen ist die Blu-ray sowiso überall billiger.

  7. #27
    Anhalter
    Registriert seit
    03.08.01
    Ort
    Berlin
    Alter
    42
    Beiträge
    3.151

    AW: Cabin in the Woods

    Zitat Zitat von TomAce Beitrag anzeigen
    Die sekundenbruch-andauernden Unterbrechungen sind bei:

    01) 3:14
    02) 4:14
    03) 33:12
    04) 33:38
    05) 52:23
    06) 52:58
    07) 1:08:51
    08) 1:09:20
    09) 1:21:33
    10) 1:22:53
    11) 1:23:46
    Ein kleiner Nachtrag, da nun meine £10-UK-BD auch eingetrudelt ist.

    Lionsgate hat den Film auf der Disc in 10 Files zerlegt und genau an den Übergängen hat halt die UK-Erstauflage gehakt:
    Code:
    FILES:
    
    Name            Time In         Length          Size            Total Bitrate
    ----            -------         ------          ----            -------------
    00501.M2TS      0:00:00.000     0:03:14.152     804.403.200     33.145
    00502.M2TS      0:03:14.152     0:01:00.185     292.515.840     38.882
    00503.M2TS      0:04:14.337     0:28:57.819     7.960.627.200   36.647
    00504.M2TS      0:33:12.156     0:00:26.568     131.364.864     39.556
    00505.M2TS      0:33:38.725     0:18:44.498     4.814.082.048   34.249
    00506.M2TS      0:52:23.223     0:00:35.493     136.587.264     30.786
    00507.M2TS      0:52:58.717     0:15:52.826     4.147.150.848   34.820
    00508.M2TS      1:08:51.544     0:00:28.862     137.582.592     38.135
    00509.M2TS      1:09:20.406     0:12:13.190     3.500.402.688   38.194
    00510.M2TS      1:21:33.596     0:01:19.954     327.542.784     32.773
    00511.M2TS      1:22:53.551     0:00:53.219     219.021.312     32.923
    00512.M2TS      1:23:46.771     0:11:15.758     2.006.734.848   23.757
    Die UK scheint ausserdem inhaltlich und technisch identisch mit der US-BD zu sein. Nur sind beide Discs jeweils regionlocked und die Playlists unterscheiden sich. Die spanischen Subs wurden bei der UK versteckt:
    Code:
    (*) Indicates included stream hidden by this playlist.
    
    SUBTITLES:
    
    Codec                           Language        Bitrate         Description     
    -----                           --------        -------         -----------     
    Presentation Graphics           English         28,030 kbps                     
    Presentation Graphics           English         31,107 kbps                     
    * Presentation Graphics         Spanish         27,118 kbps
    EDIT: hmm, doch nicht identisch. Der Trailer fehlt auf der UK-BD.
    Geändert von Timo (22.10.12 um 19:48:23 Uhr)

  8. #28
    Registrierter Benutzer
    Registriert seit
    23.11.02
    Alter
    46
    Beiträge
    2.073

    AW: Cabin in the Woods

    aber man kann inzwischen die BluRay ohne Bedenken ordern? Oder treiben sich noch viele von den "Defekten" herum?
    (zavvi.co,, thehut.co, amazon.co.uk)

  9. #29
    Registrierter Benutzer
    Registriert seit
    20.02.10
    Beiträge
    1.931

    AW: Cabin in the Woods

    Amazon.co.uk hat nur noch die neuen Discs.

  10. #30
    Registrierter Benutzer
    Registriert seit
    23.11.02
    Alter
    46
    Beiträge
    2.073

    AW: Cabin in the Woods

    danke^^

  11. #31
    Registrierter Benutzer
    Registriert seit
    30.10.07
    Beiträge
    1.742

    AW: Cabin in the Woods

    Gibts gerade (nur heute) bei play für 11,49€...verschicken die auch nur noch die korrigierte Scheibe?

  12. #32
    Anhalter
    Registriert seit
    03.08.01
    Ort
    Berlin
    Alter
    42
    Beiträge
    3.151

    AW: Cabin in the Woods

    Laut blu-ray.com Forum schon. Lionsgate hat die fehlerhafte Erstauflage mittlerweile wohl längst eingezogen (siehe neues Release Date bei Amazon).

  13. #33
    Registrierter Benutzer
    Registriert seit
    30.10.07
    Beiträge
    1.742

    AW: Cabin in the Woods

    Ok, danke für die (rechtzeitige) Info.
    Dann riskiere ich es mal.

Seite 2 von 2 ErsteErste 12

Aktive Benutzer

Aktive Benutzer

Aktive Benutzer in diesem Thema: 1 (Registrierte Benutzer: 0, Gäste: 1)

Lesezeichen

Lesezeichen

Berechtigungen

  • Neue Themen erstellen: Nein
  • Themen beantworten: Nein
  • Anhänge hochladen: Nein
  • Beiträge bearbeiten: Nein
  •