Cinefacts

Ergebnis 1 bis 4 von 4
  1. #1
    Dances with Wolves
    Registriert seit
    05.08.01
    Ort
    Mein Heimkino!
    Alter
    53
    Beiträge
    4.032

    Der Unsichtbare - The Invisible Man - mit David McCallum

    gibt's ja jetzt endlich als DVD & BD-Variante:

    http://www.amazon.de/Der-Unsichtbare...er+unsichtbare

    Hat jemand die BD und kann bestätigen, dass es echtes HD ist, also nicht hochskalliertes SD-Material? Es gibt zwar auch eine US-Vorlage, aber die soll im Ggs. zur deutschen Version auf 16:9 gestaucht sein (für mich ein No-Go), daher auch meine Bedenken, dass es echtes HD ist.

  2. #2
    Registrierter Benutzer
    Registriert seit
    29.06.11
    Beiträge
    894

    AW: Der Unsichtbare - The Invisible Man - mit David McCallum

    Echtes HD, 4:3 Aspect Ratio.
    Warum Disk1 mit 23,976fps und Disk2 mit 25fps läuft, ist mir allerdings nicht bekannt.

    Code:
    DISC INFO:
     
     Disc Title:     DISC1
     Disc Size:      49 093 294 468 bytes
     Protection:     AACS
     BD-Java:        No
     Extras:         50Hz Content
     BDInfo:         0.5.8
     
     PLAYLIST REPORT:
     
     Name:                   00004.MPLS
     Length:                 0:49:03.523 (h:m:s.ms)
     Size:                   5 688 643 584 bytes
     Total Bitrate:          15,46 Mbps
     
     VIDEO:
     
     Codec                   Bitrate             Description     
     -----                   -------             -----------     
     MPEG-4 AVC Video        13827 kbps          1080p / 23,976 fps / 16:9 / High Profile 4.1
     
     AUDIO:
     
     Codec                           Language        Bitrate         Description     
     -----                           --------        -------         -----------     
     Dolby Digital Audio             English         448 kbps        2.0 / 48 kHz / 448 kbps / DN -4dB
     Dolby Digital Audio             German          448 kbps        2.0 / 48 kHz / 448 kbps / DN -4dB
     
     FILES:
     
     Name            Time In         Length          Size            Total Bitrate   
     ----            -------         ------          ----            -------------   
     00004.M2TS      0:00:00.000     0:49:01.521     5 680 945 152   15 450          
     00015.M2TS      0:49:01.521     0:00:02.001     7 698 432       30 763
    Code:
    DISC INFO:
     
     Disc Title:     DISC2
     Disc Size:      48 880 915 152 bytes
     Protection:     AACS
     BD-Java:        No
     Extras:         50Hz Content
     BDInfo:         0.5.8
     
     PLAYLIST REPORT:
     
     Name:                   00006.MPLS
     Length:                 1:09:32.120 (h:m:s.ms)
     Size:                   9 535 782 912 bytes
     Total Bitrate:          18,28 Mbps
     
     VIDEO:
     
     Codec                   Bitrate             Description     
     -----                   -------             -----------     
     MPEG-4 AVC Video        16979 kbps          1080i / 25 fps / 16:9 / High Profile 4.1
     
     AUDIO:
     
     Codec                           Language        Bitrate         Description     
     -----                           --------        -------         -----------     
     Dolby Digital Audio             English         224 kbps        2.0 / 48 kHz / 224 kbps / DN -4dB
     Dolby Digital Audio             German          224 kbps        2.0 / 48 kHz / 224 kbps / DN -4dB
     
     SUBTITLES:
     
     Codec                           Language        Bitrate         Description     
     -----                           --------        -------         -----------     
     Presentation Graphics           German          12,912 kbps                     
     
     FILES:
     
     Name            Time In         Length          Size            Total Bitrate   
     ----            -------         ------          ----            -------------   
     00000.M2TS      0:00:00.000     0:00:05.039     872 448         1 385           
     00006.M2TS      0:00:05.039     1:09:25.080     9 527 218 176   18 299          
     00020.M2TS      1:09:30.120     0:00:02.000     7 692 288       30 769
    Screenshots:
    http://imgbox.com/acoVY9vZ
    http://imgbox.com/adic62xY
    http://imgbox.com/adiPePEj
    http://imgbox.com/adv46Tq0
    http://imgbox.com/acuRzzLa
    http://imgbox.com/acxHYRjZ
    http://imgbox.com/acmQAeID
    http://imgbox.com/abr1hGBE
    http://imgbox.com/acw3G5ZE

  3. #3
    Dances with Wolves
    Registriert seit
    05.08.01
    Ort
    Mein Heimkino!
    Alter
    53
    Beiträge
    4.032

    AW: Der Unsichtbare - The Invisible Man - mit David McCallum

    Danke Xorp! Dann kann man ja (eigentlich) bedenkenlos zuschlagen!! :-) Die 24 vs. 25fps sind allerdings tatsächlich seltsam, ist denn die Tonhöhe bei einer der beiden Disc "unangenehm"? Viele ältere Serien wurden ja auf 25fps synchronisiert (obwohl auch Film gedreht), sodass die 24er-Disc ev. zu tief klingen könnte...

  4. #4
    U.S
    U.S ist offline
    Registrierter Benutzer
    Registriert seit
    11.02.06
    Beiträge
    847

    AW: Der Unsichtbare - The Invisible Man - mit David McCallum

    http://www.cinefacts.de/Forum/229551...-mccallum.html

    Kann mal ein Mod die beiden Threads zusammenlegen?

    Es ist übrigens nur der auf beiden Discs enthaltene Pilot, der in 1080i50 läuft, alle andern Folgen liegen in 1080p23,976 vor.

Aktive Benutzer

Aktive Benutzer

Aktive Benutzer in diesem Thema: 1 (Registrierte Benutzer: 0, Gäste: 1)

Lesezeichen

Lesezeichen

Berechtigungen

  • Neue Themen erstellen: Nein
  • Themen beantworten: Nein
  • Anhänge hochladen: Nein
  • Beiträge bearbeiten: Nein
  •